[ Today is free to download without increasing Download ]

DL-List and Torrent activity
Дом в конце улицы / House at the End of the Street
Страна: США, Канада
Жанр: ужасы, триллер
Год выпуска: 2012
Продолжительность: 01:41:46--Перевод: Профессиональный (дублированный) лицензия
Cубтитры: нет
Режиссер: Марк Тондерай / Mark Tonderai--В ролях:
Дженнифер Лоуренс, Макс Тириот, Элизабет Шу, Джил Беллоуз, Нолан Фанк, Ева Линк, Александра МакДональд, Джордан Хэйес, Криста Бриджес, Джеймс Томас--Описание:
Переехав жить в небольшой провинциальный город, Сара и ее дочь еще не догадываются, что вскоре окажутся в эпицентре очень ужасной истории. Когда окажется, что вблизи живет серийный убийца, который несколько лет назад убил всю свою семью, хладнокровно спланировав преступление и выйдя сухим из воды.-- Релиз от: --Примечание: Отсутствует около 1 минуты перевода--Качество видео: HDRip
Формат видео: AVI
Видео: 720x304 (2.37:1), 23.976 fps, XviD build 73 ~1588 kbps avg, 0.30 bit/pixel
Аудио: 48 kHz, AC3 Dolby Digital, 3/2 (L,C,R,l,r) + LFE ch, ~448 kbps


Complete name : D:\video\Dom_v_konce_ulicy.avi
Format : AVI
Format/Info : Audio Video Interleave
File size : 1.45 GiB
Duration : 1h 41mn
Overall bit rate : 2 046 Kbps
Movie name : Dom.v.konce.ulicy.2012.D.HDRip.IRONCLUB
Director : IRONCLUB
Genre : Horror | Thriller
Writing application : VirtualDubMod (build 2540/release)
Original source form/Name : Movie
Copyright : ironclub.tv
Video #0
ID : 0
Format : MPEG-4 Visual
Format profile : Advanced Simple@L5
Format settings, BVOP : 2
Format settings, QPel : No
Format settings, GMC : No warppoints
Format settings, Matrix : Custom
Codec ID : XVID
Codec ID/Hint : XviD
Duration : 1h 41mn
Bit rate : 1 588 Kbps
Width : 720 pixels
Height : 304 pixels
Display aspect ratio : 2.35:1
Frame rate : 23.976 fps
Color space : YUV
Chroma subsampling : 4:2:0
Bit depth : 8 bits
Scan type : Progressive
Compression mode : Lossy
Bits/(Pixel*Frame) : 0.303
Stream size : 1.13 GiB (78%)
Writing library : XviD 73
Audio #1
ID : 1
Format : AC-3
Format/Info : Audio Coding 3
Mode extension : CM (complete main)
Format settings, Endianness : Big
Codec ID : 2000
Duration : 1h 41mn
Bit rate mode : Constant
Bit rate : 448 Kbps
Channel(s) : 6 channels
Channel positions : Front: L C R, Side: L R, LFE
Sampling rate : 48.0 KHz
Bit depth : 16 bits
Compression mode : Lossy
Stream size : 326 MiB (22%)
Alignment : Split accross interleaves
Interleave, duration : 42 ms (1.00 video frame)
Interleave, preload duration : 500 ms

Скриншот c названием фильма



Топик был перенесен из форума Новинки кинопроката в форум Ужасы

Display posts:    

Current time is: 20-Oct 22:42

All times are UTC + 3

You cannot post new topics in this forum
You cannot reply to topics in this forum
You cannot edit your posts in this forum
You cannot delete your posts in this forum
You cannot vote in polls in this forum
You cannot attach files in this forum
You cannot download files in this forum

The site does not give electronic versions of products, and is engaged only in a collecting and cataloguing of the references sent and published at a forum by our readers. If you are the legal owner of any submitted material and do not wish that the reference to it was in our catalogue, contact us and we shall immediately remove her. Files for an exchange on tracker are given by users of a site, and the administration does not bear the responsibility for their maintenance. The request to not fill in the files protected by copyrights, and also files of the illegal maintenance!