[ Сегодня идет свободное скачивание без начисления Download ]


Статистика раздачи
Нет
 
   
 
Top  
 
 
КрасавчикKeinohrhasen Страна: Германия
Студия: Вarefoot films, Medienboard Berlin-Brandenburg
Жанр: мелодрама, комедия
Год выпуска: 2007
Продолжительность: 01:56:03
Перевод: Профессиональный (дублированный)
Cубтитры: русские
Оригинальная аудиодорожка: немецкий
Режиссер: Тиль Швайгер / Til Schweiger
В ролях: Тиль Швайгер, Нора Тширнер, Маттиас Швайгхефер, Алвара Хёфельс, Юрген Фогель, Рик Каваниан, Армин Рохд, Вольфганг Штумпф, Барбара Рудник, Кристиан Трамиц
Описание: Журналист Людо, схлопотавший восемь месяцев тюрьмы, освобожден на испытательный срок при условии, что он обязательно пройдет курс трудотерапии. Ему предстоит отработать триста часов в местном детском саду. Как ухаживать за 8-летними оболтусами, Людо не очень представляет, но в группе работает его старая знакомая…

Тип релиза: BDRip 720p
Контейнер: MKV
Видео: МPEG-4 AVC, 1280х544 (2,35:1) , 23,976fps, ~ 4486 Кбит/сек , High@L4.1
Аудио: Русский, AC3, 5.1 (L,R,C,Ls,Rs+LFE), 48 кГц, 448 kbps avg
Аудио 2: Немецкий , DTS, 5.1 (L,R,C,Ls,Rs+LFE), 48 кГц, 16 бит, 1510 kbps avg
Формат субтитров: softsub (SRT)

x264:

x264 [info]: frame I:2255  Avg QP:16.52  size:126120
x264 [info]: frame P:32440 Avg QP:20.23  size: 42070
x264 [info]: frame B:132256 Avg QP:22.09  size: 17929

MediaInfo

Общее
Уникальный идентификатор         : 214945545233780304410050946453828220208 (0xA1B501962E76E90EAADB98AC0B273530)
Полное имя                       : E:\торрент\Keinohrhasen(2007)BDRip 720p.mkv
Формат                           : Matroska
Версия формата                   : Version 2
Размер файла                     : 5,33 Гбайт
Продолжительность                : 1 ч. 56 м.
Общий поток                      : 6579 Кбит/сек
Дата кодирования                 : UTC 2011-12-25 16:58:34
Программа кодирования            : mkvmerge v5.1.0 ('And so it goes') built on Nov 28 2011 23:58:28
Библиотека кодирования           : libebml v1.2.3 + libmatroska v1.3.0
Видео
Идентификатор                    : 1
Формат                           : AVC
Формат/Информация                : Advanced Video Codec
Профиль формата                  : High@L4.1
Параметр CABAC формата           : Да
Параметр ReFrames формата        : 10 кадров
Режим смешивания                 : Container profile=Unknown@0.0
Идентификатор кодека             : V_MPEG4/ISO/AVC
Продолжительность                : 1 ч. 56 м.
Битрейт                          : 4490 Кбит/сек
Ширина                           : 1280 пикселей
Высота                           : 544 пикселя
Соотношение сторон               : 2,35:1
Частота кадров                   : 23,976 кадра/сек
Цветовое пространство            : YUV
Субдискретизация насыщенности    : 4:2:0
Битовая глубина                  : 8 бит
Тип развёртки                    : Прогрессивная
Бит/(Пиксели*Кадры)              : 0.269
Размер потока                    : 3,64 Гбайт (68%)
Библиотека кодирования           : x264 core 120 r2120 0c7dab9
Настройки программы              : cabac=1 / ref=10 / deblock=1:-3:-2 / analyse=0x3:0x113 / me=esa / subme=10 / psy=1 / psy_rd=1.05:0.25 / mixed_ref=1 / me_range=32 / chroma_me=1 / trellis=2 / 8x8dct=1 / cqm=0 / deadzone=21,11 / fast_pskip=0 / chroma_qp_offset=-4 / threads=6 / sliced_threads=0 / nr=0 / decimate=0 / interlaced=0 / bluray_compat=0 / constrained_intra=0 / bframes=9 / b_pyramid=2 / b_adapt=2 / b_bias=0 / direct=1 / weightb=1 / open_gop=0 / weightp=2 / keyint=240 / keyint_min=23 / scenecut=40 / intra_refresh=0 / rc_lookahead=60 / rc=crf / mbtree=1 / crf=18.7 / qcomp=0.70 / qpmin=0 / qpmax=69 / qpstep=4 / vbv_maxrate=50000 / vbv_bufsize=62500 / crf_max=0.0 / nal_hrd=none / ip_ratio=1.40 / aq=2:0.80
Аудио #1
Идентификатор                    : 2
Формат                           : AC-3
Формат/Информация                : Audio Coding 3
Расширение режима                : CM (complete main)
Идентификатор кодека             : A_AC3
Продолжительность                : 1 ч. 56 м.
Вид битрейта                     : Постоянный
Битрейт                          : 448 Кбит/сек
Каналы                           : 6 каналов
Расположение каналов             : Front: L C R, Side: L R, LFE
Частота                          : 48,0 КГц
Битовая глубина                  : 16 бит
Метод сжатия                     : С потерями
Размер потока                    : 372 Мбайт (7%)
Язык                             : Russian
Аудио #2
Идентификатор                    : 3
Формат                           : DTS
Формат/Информация                : Digital Theater Systems
Идентификатор кодека             : A_DTS
Продолжительность                : 1 ч. 56 м.
Вид битрейта                     : Постоянный
Битрейт                          : 1510 Кбит/сек
Каналы                           : 6 каналов
Расположение каналов             : Front: L C R, Side: L R, LFE
Частота                          : 48,0 КГц
Битовая глубина                  : 24 бит
Метод сжатия                     : С потерями
Размер потока                    : 1,22 Гбайт (23%)
Язык                             : German
Текст
Идентификатор                    : 4
Формат                           : UTF-8
Идентификатор кодека             : S_TEXT/UTF8
Идентификатор кодека/Информация  : UTF-8 Plain Text
Язык                             : Russian
Меню
00:00:00.000                     : en:Chapter 01
00:10:12.737                     : en:Chapter 02
00:20:15.964                     : en:Chapter 03
00:32:12.305                     : en:Chapter 04
00:42:25.543                     : en:Chapter 05
00:48:26.820                     : en:Chapter 06
01:01:25.264                     : en:Chapter 07
01:12:17.875                     : en:Chapter 08
01:23:21.246                     : en:Chapter 09
01:33:19.135                     : en:Chapter 10
01:44:52.744                     : en:Chapter 11
01:46:22.918                     : en:Chapter 12

Скриншоты


[Цитировать]



Показать сообщения:    

Текущее время: 08-Дек 03:11

Часовой пояс: UTC + 3


Вы не можете начинать темы
Вы не можете отвечать на сообщения
Вы не можете редактировать свои сообщения
Вы не можете удалять свои сообщения
Вы не можете голосовать в опросах
Вы не можете прикреплять файлы к сообщениям
Вы не можете скачивать файлы

!ВНИМАНИЕ!
Сайт не предоставляет электронные версии произведений, а занимается лишь коллекционированием и каталогизацией ссылок, присылаемых и публикуемых на форуме нашими читателями. Если вы являетесь правообладателем какого-либо представленного материала и не желаете, чтобы ссылка на него находилась в нашем каталоге, свяжитесь с нами, и мы незамедлительно удалим ее. Файлы для обмена на трекере предоставлены пользователями сайта, и администрация не несет ответственности за их содержание. Просьба не заливать файлы, защищенные авторскими правами, а также файлы нелегального содержания!