[ Сегодня идет свободное скачивание без начисления Download ]


Статистика раздачи
Нет
 
   
 
Top  
 
 
-Что творят мужчины! (2013) BDRip-«Секс на вылет»- Русское название: Что творят мужчины!
Производство: Россия / Enjoy Movies
Год выпуска: 2013
Жанр: Комедия
Перевод: Не требуется (русский) |Лицензия|
Субтитры: отсутствуют
Режиссер: Сарик Андреасян
Актеры: Таир Мамедов, Константин Крюков, Роман Юнусов, Гавриил Гордеев, Равшана Куркова, Анна Хилькевич, Кристина Асмус, Наталия Медведева, Екатерина Скулкина, Даша Астафьева
Описание фильма:
Неприступные женщины, полмиллиона долларов и четверо героев которым предстоит принять участие в игре «Секс-лото», организованное экстравагантным миллионером. Суть игры — за пять дней соблазнить как можно больше женщин на морском курорте. Получив задания, великолепная четверка бросается в бой. Но все цели совсем не простые — бабушка, жена олигарха, девственница, феминистка, сектантка — и приз получит только лучший. Каждый применит свой фирменный арсенал, и все будут близки к тому, чтобы получить заветный куш, записав новых жертв в список своих мужских побед. Но неожиданно в «дело секса» вмешается любовь.
[kp]715464[/kp] [imdb]tt2649152[/imdb]
Дата мировой премьеры: 28 февраля 2013
Дата российской премьеры: 28 февраля 2013, «Каропрокат»
Дата выхода DVD релиза: 25 марта 2013, «Новый Диск»
Дата выхода Blu-Ray релиза: 25 марта 2013, «Новый Диск»
Продолжительность: 01:26:36
Качество видео: BDRip
Видеокодек: MPEG-4 AVC/H.264
Битрейт видео: 4327 kb/s
Размер кадра: 1280x578
Аудио: Русский: DTS, 1510 kb/s (6 ch)
Дополнительно: Сохранены оригинальные чаптеры как на Blu-Ray.
Релиз от:

MediaInfo:

General
Unique ID : 191258053541924379395760332589348086466 (0x8FE2F613F75CC5BFBE64C284AD6AE2C2)
Complete name : D:\Video\Movies\Chto.tvorjat.muzhchiny.2013.O.BDRip.720p.mkv
Format : Matroska
Format version : Version 2
File size : 3.60 GiB
Duration : 1h 26mn
Overall bit rate : 5 955 Kbps
Movie name : IRONCLUB
Encoded date : UTC 2013-03-21 19:55:27
Writing application : mkvmerge v5.2.0 ('I can't explain') built on Dec 18 2011 18:12:03
Writing library : libebml v1.2.3 + libmatroska v1.3.0
Video
ID : 1
Format : AVC
Format/Info : Advanced Video Codec
Format profile : High@L4.1
Format settings, CABAC : Yes
Format settings, ReFrames : 11 frames
Codec ID : V_MPEG4/ISO/AVC
Duration : 1h 26mn
Bit rate : 4 328 Kbps
Width : 1 280 pixels
Height : 578 pixels
Display aspect ratio : 2.2:1
Frame rate mode : Constant
Frame rate : 24.000 fps
Color space : YUV
Chroma subsampling : 4:2:0
Bit depth : 8 bits
Scan type : Progressive
Bits/(Pixel*Frame) : 0.244
Stream size : 2.62 GiB (73%)
Title : Chto.tvorjat.muzhchiny.2013.O.BDRip.720p.IRONCLUB
Writing library : x264 core 130 r2273kMod b3065e6
Encoding settings : cabac=1 / ref=11 / deblock=1:-3:-3 / analyse=0x3:0x113 / me=umh / subme=11 / psy=1 / fade_compensate=0.00 / psy_rd=1.00:0.00 / mixed_ref=1 / me_range=24 / chroma_me=1 / trellis=2 / 8x8dct=1 / cqm=0 / deadzone=21,11 / fast_pskip=0 / chroma_qp_offset=-2 / threads=12 / lookahead_threads=2 / sliced_threads=0 / nr=0 / decimate=1 / interlaced=0 / bluray_compat=0 / constrained_intra=0 / bframes=7 / b_pyramid=2 / b_adapt=2 / b_bias=0 / direct=3 / weightb=1 / open_gop=0 / weightp=2 / keyint=250 / keyint_min=24 / scenecut=40 / intra_refresh=0 / rc_lookahead=60 / rc=crf / mbtree=0 / crf=16.0000 / qcomp=0.70 / qpmin=0 / qpmax=69 / qpstep=4 / vbv_maxrate=50000 / vbv_bufsize=62500 / crf_max=0.0 / nal_hrd=none / ip_ratio=1.30 / pb_ratio=1.20 / aq=1:0.80
Language : English
Default : Yes
Forced : Yes
Matrix coefficients : BT.709
Audio
ID : 2
Format : DTS
Format/Info : Digital Theater Systems
Mode : 16
Format settings, Endianness : Big
Codec ID : A_DTS
Duration : 1h 26mn
Bit rate mode : Constant
Bit rate : 1 509 Kbps
Channel(s) : 6 channels
Channel positions : Front: L C R, Side: L R, LFE
Sampling rate : 48.0 KHz
Bit depth : 16 bits
Compression mode : Lossy
Stream size : 935 MiB (25%)
Title : DTS 5.1 @ 1536 kbps
Language : Russian
Default : Yes
Forced : Yes
Menu
00:00:00.000 : ru:00:00:00.000
00:05:04.333 : ru:00:05:04.333
00:10:08.833 : ru:00:10:08.833
00:16:56.625 : ru:00:16:56.625
00:23:02.833 : ru:00:23:02.833
00:32:08.583 : ru:00:32:08.583
00:38:21.125 : ru:00:38:21.125
00:45:30.750 : ru:00:45:30.750
00:55:24.916 : ru:00:55:24.916
01:03:07.750 : ru:01:03:07.750
01:08:40.000 : ru:01:08:40.000
01:15:34.583 : ru:01:15:34.583
Скриншоты:

Время раздачи: 24/7 - круглосуточно

[Цитировать]

Топик был перенесен из форума Документальное кино (HD Video) в форум Новинки кинопроката (HD Video)


Xenon

Топик был перенесен из форума Новинки кинопроката (HD Video) в форум Зарубежное кино (HD Video)
Bootch



Показать сообщения:    

Текущее время: 10-Дек 04:03

Часовой пояс: UTC + 3


Вы не можете начинать темы
Вы не можете отвечать на сообщения
Вы не можете редактировать свои сообщения
Вы не можете удалять свои сообщения
Вы не можете голосовать в опросах
Вы не можете прикреплять файлы к сообщениям
Вы не можете скачивать файлы

!ВНИМАНИЕ!
Сайт не предоставляет электронные версии произведений, а занимается лишь коллекционированием и каталогизацией ссылок, присылаемых и публикуемых на форуме нашими читателями. Если вы являетесь правообладателем какого-либо представленного материала и не желаете, чтобы ссылка на него находилась в нашем каталоге, свяжитесь с нами, и мы незамедлительно удалим ее. Файлы для обмена на трекере предоставлены пользователями сайта, и администрация не несет ответственности за их содержание. Просьба не заливать файлы, защищенные авторскими правами, а также файлы нелегального содержания!