[ Сегодня идет свободное скачивание без начисления Download ]


Статистика раздачи
Нет
 
   
 
Top  
 
 
-Женщины в беде / Women in Trouble (2009) BDRip-«Большие надежды, Большие неприятности, Большие каблуки.»- Русское название: Женщины в беде
Оригинальное название: Women in Trouble
Год выпуска: 2009
Жанр: Комедия
Описание фильма:
Провокационная комедия Себастьяна Гутьерреса об одном дне из жизни нескольких совершенно разных женщин, среди которых: порнозвезда, стюардесса, психиатр, массажистка, официантка и пара девушек по вызову. Всех их объединяет одна вещь — проблема. Пути этих женщин случайным образом пересекаются, и такая встреча чем-то помогает каждой из них…
Режиссер: Себастьян Гутьеррес
Актеры: Карла Гуджино, Эдрианн Палики, Dan Mailley, Конни Бриттон, Кэйтлин Китс, Изабелла Гутьеррез, Джош Бролин, Джозеф Гордон-Левитт, Саймон Бейкер, Сара Кларк, Эммануэль Шрики, Антонио Грана
Продолжительность: 01:35:22
Перевод: Профессиональный (многоголосый закадровый) R5, Союз-Видео + Профессиональный (многоголосый закадровый) - (Украинский - К1)
Язык субтитров: Русские, Английские (SRT)
Вид субтитров: Отдельным файлом
-Примечание: продолжение фильма после финальных титров-Дата мировой премьеры: 15 марта 2009
Дата выхода DVD релиза: 16 сентября 2010, «Союз-Видео»
Видеокодек: Xvid
Битрейт видео: ~1976 kb/s
Размер кадра: 720х400
Качество видео: BDRip
Аудио#1: 48 kHz, AC3 Dolby Digital 6 ch, 448.00 kbps / Профессиональный (многоголосый закадровый) R5, Союз-Видео
Аудио#2: 48 kHz, AC3 Dolby Digital 2 ch, 192.00 kbps / Профессиональный (многоголосый закадровый) - (Украинский - К1)
Аудио#3: 48 kHz, AC3 Dolby Digital 6 ch, 448.00 kbps / Оригинал (Английский)
&

MI

Общее
Полное имя : E:\Фильмы М\Women.in.Trouble.2009.BDRip.Rus.Ukr.Eng\Women in Trouble.2009.BDRip.avi
Формат : AVI
Формат/Информация : Audio Video Interleave
Профиль формата : OpenDML
Размер файла : 2,06 Гбайт
Продолжительность : 1 ч. 35 м.
Общий поток : 3089 Кбит/сек
Программа кодирования : VirtualDubModRus 1.5.10.2 (build 2542/release)
Библиотека кодирования : VirtualDubMod build 2542/release
Видео
Идентификатор : 0
Формат : MPEG-4 Visual
Профиль формата : Advanced Simple@L5
Параметр BVOP формата : 1
Параметр QPel формата : Нет
Параметр GMC формата : Без точки перехода
Параметр матрицы формата : Выборочная
Режим смешивания : Сжатый битовый поток
Идентификатор кодека : XVID
Идентификатор кодека/Подсказка : XviD
Продолжительность : 1 ч. 35 м.
Битрейт : 1976 Кбит/сек
Ширина : 720 пикселей
Высота : 400 пикселей
Соотношение сторон : 16:9
Частота кадров : 23,976 кадра/сек
Цветовое пространство : YUV
Субдискретизация насыщенности : 4:2:0
Битовая глубина : 8 бит
Тип развёртки : Прогрессивная
Метод сжатия : С потерями
Бит/(Пиксели*Кадры) : 0.286
Размер потока : 1,32 Гбайт (64%)
Библиотека кодирования : XviD 65
Аудио #1
Идентификатор : 1
Формат : AC-3
Формат/Информация : Audio Coding 3
Расширение режима : CM (complete main)
Параметр Endianness формата : Big
Идентификатор кодека : 2000
Продолжительность : 1 ч. 35 м.
Вид битрейта : Постоянный
Битрейт : 448 Кбит/сек
Каналы : 6 каналов
Расположение каналов : Front: L C R, Side: L R, LFE
Частота : 48,0 КГц
Битовая глубина : 16 бит
Метод сжатия : С потерями
Размер потока : 306 Мбайт (15%)
Выравнивание : Разделение по промежуткам
Продолжительность промежутка : 42 мс. (1,00 видеокадр)
Время предзагрузки промежутка : 500 мс.
Заголовок : Профессиональный (многоголосый закадровый) R5, Союз-Видео
Аудио #2
Идентификатор : 2
Формат : AC-3
Формат/Информация : Audio Coding 3
Расширение режима : CM (complete main)
Параметр Endianness формата : Big
Идентификатор кодека : 2000
Продолжительность : 1 ч. 35 м.
Вид битрейта : Постоянный
Битрейт : 192 Кбит/сек
Каналы : 2 канала
Расположение каналов : Front: L R
Частота : 48,0 КГц
Битовая глубина : 16 бит
Метод сжатия : С потерями
Размер потока : 131 Мбайт (6%)
Выравнивание : Разделение по промежуткам
Продолжительность промежутка : 42 мс. (1,00 видеокадр)
Время предзагрузки промежутка : 500 мс.
Заголовок : Профессиональный (многоголосый закадровый) - (Украинский - К1)
Аудио #3
Идентификатор : 3
Формат : AC-3
Формат/Информация : Audio Coding 3
Расширение режима : CM (complete main)
Параметр Endianness формата : Big
Идентификатор кодека : 2000
Продолжительность : 1 ч. 35 м.
Вид битрейта : Постоянный
Битрейт : 448 Кбит/сек
Каналы : 6 каналов
Расположение каналов : Front: L C R, Side: L R, LFE
Частота : 48,0 КГц
Битовая глубина : 16 бит
Метод сжатия : С потерями
Размер потока : 306 Мбайт (15%)
Выравнивание : Разделение по промежуткам
Продолжительность промежутка : 42 мс. (1,00 видеокадр)
Время предзагрузки промежутка : 500 мс.
Заголовок : Оригинал (Английский)
Скриншоты:

Время раздачи: С 23:00 до 8:30

[Цитировать]



Показать сообщения:    

Текущее время: 08-Дек 10:55

Часовой пояс: UTC + 3


Вы не можете начинать темы
Вы не можете отвечать на сообщения
Вы не можете редактировать свои сообщения
Вы не можете удалять свои сообщения
Вы не можете голосовать в опросах
Вы не можете прикреплять файлы к сообщениям
Вы не можете скачивать файлы

!ВНИМАНИЕ!
Сайт не предоставляет электронные версии произведений, а занимается лишь коллекционированием и каталогизацией ссылок, присылаемых и публикуемых на форуме нашими читателями. Если вы являетесь правообладателем какого-либо представленного материала и не желаете, чтобы ссылка на него находилась в нашем каталоге, свяжитесь с нами, и мы незамедлительно удалим ее. Файлы для обмена на трекере предоставлены пользователями сайта, и администрация не несет ответственности за их содержание. Просьба не заливать файлы, защищенные авторскими правами, а также файлы нелегального содержания!