[ Сегодня идет свободное скачивание без начисления Download ]


Статистика раздачи
Нет
 
   
 
Top  
 
 
Астрал
«Это не дом населён призраками...»
-Год выпуска: 2010
Страна: США
Жанр: ужасы, триллер
Продолжительность: 01:42:22
Перевод: Профессиональный (полное дублирование)
Русские субтитры: нет
Оригинальная аудиодорожка: английский-Режиссер: Джеймс Ванн
В ролях: Патрик Уилсон, Роуз Бирн, Тай Симпкинс, Эндрю Эстор, Лин Шэй, Ли Уоннелл, Энгус Сэмпсон, Барбара Херши, Корбетт Так, Хезер Токуини-Описание: Джош и Рене переезжают со своими детьми в новый дом, но не успевают толком распаковать вещи, как начинаются странные события. Необъяснимо перемещаются предметы, в детской звучат странные звуки… Но в настоящий ужас приходят родители, когда их десятилетний сын Далтон впадает в кому. Все усилия врачей в больнице помочь мальчику безуспешны.
Несколько месяцев спустя его возвращают домой, где за несчастным ребенком ухаживают мать и сиделка. Но загадочные явления в доме продолжаются. Отчаявшиеся родители готовы обратиться за помощью к кому угодно и вскоре выясняется, что Далтон в бессознательном состоянии связан с паранормальным миром…


Дополнительно: нет
Меню: на русском, статичное, озвученное
Качество видео: Blu-ray disc
Формат видео: BDMV
Видео: MPEG-4 AVC Video / 24899 kbps / 1080p / 23.976 fps / 16:9 / High Profile 4.1
Аудио#1: DTS-HD Master Audio / Russian / 2127 kbps / 5.1 / 48 kHz / 2127 kbps / 16-bit (DTS Core: 5.1 / 48 kHz / 1509 kbps / 16-bit)
Аудио#2: DTS-HD Master Audio / English / 2297 kbps / 5.1 / 48 kHz / 2297 kbps / 16-bit (DTS Core: 5.1 / 48 kHz / 1509 kbps / 16-bit)
Субтитры: Estonian, Latvian, Lithuanian, Ukrainian
Формат субтитров: PGS

Скриншоты


BDInfo

Disc Title: Insidious.2010.Blu-Ray
Disc Size: 24 140 708 262 bytes
Protection: AACS
BD-Java: No
BDInfo: 0.5.6
Notes:
BDINFO HOME:
Cinema Squid
http://www.cinemasquid.com/blu-ray/tools/bdinfo
INCLUDES FORUMS REPORT FOR:
AVS Forum Blu-ray Audio and Video Specifications Thread
http://www.avsforum.com/avs-vb/showthread.php?t=1155731
********************
PLAYLIST: 00004.MPLS
********************
Total   Video
Title                                                           Codec   Length  Movie Size      Disc Size       Bitrate Bitrate Main Audio Track                          Secondary Audio Track
-----                                                           ------  ------- --------------  --------------  ------- ------- ------------------                        ---------------------
00004.MPLS                                                      AVC     1:42:22 24 024 987 648  24 140 708 262  31,29   24,90   DTS-HD Master 5.1 2297Kbps (48kHz/16-bit)
DISC INFO:
Disc Title:     Insidious.2010.Blu-Ray
Disc Size:      24 140 708 262 bytes
Protection:     AACS
BD-Java:        No
BDInfo:         0.5.6
PLAYLIST REPORT:
Name:                   00004.MPLS
Length:                 1:42:22 (h:m:s)
Size:                   24 024 987 648 bytes
Total Bitrate:          31,29 Mbps
VIDEO:
Codec                   Bitrate             Description
-----                   -------             -----------
MPEG-4 AVC Video        24899 kbps          1080p / 23,976 fps / 16:9 / High Profile 4.1
AUDIO:
Codec                           Language        Bitrate         Description
-----                           --------        -------         -----------
DTS-HD Master Audio             English         2297 kbps       5.1 / 48 kHz / 2297 kbps / 16-bit (DTS Core: 5.1 / 48 kHz / 1509 kbps / 16-bit)
DTS-HD Master Audio             Russian         2127 kbps       5.1 / 48 kHz / 2127 kbps / 16-bit (DTS Core: 5.1 / 48 kHz / 1509 kbps / 16-bit)
SUBTITLES:
Codec                           Language        Bitrate         Description
-----                           --------        -------         -----------
Presentation Graphics           Chinese         17,927 kbps
Presentation Graphics           Chinese         16,668 kbps
Presentation Graphics           Chinese         17,471 kbps
Presentation Graphics           Estonian        18,223 kbps
Presentation Graphics           Latvian         16,929 kbps
Presentation Graphics           Lithuanian      17,917 kbps
Presentation Graphics           Ukrainian       19,056 kbps
FILES:
Name            Time In         Length          Size            Total Bitrate
----            -------         ------          ----            -------------
00007.M2TS      0:00:00.000     1:42:22.136     24 024 987 648  31 292
CHAPTERS:
Number          Time In         Length          Avg Video Rate  Max 1-Sec Rate  Max 1-Sec Time  Max 5-Sec Rate  Max 5-Sec Time  Max 10Sec Rate  Max 10Sec Time  Avg Frame Size  Max Frame Size  Max Frame Time
------          -------         ------          --------------  --------------  --------------  --------------  --------------  --------------  --------------  --------------  --------------  --------------
1               0:00:00.000     0:05:36.669     16 045 kbps     44 206 kbps     00:05:31.664    32 677 kbps     00:05:31.414    30 651 kbps     00:05:02.510    83 641 bytes    336 510 bytes   00:05:13.271
2               0:05:36.669     0:05:53.269     25 789 kbps     46 471 kbps     00:07:16.769    40 224 kbps     00:07:16.018    37 514 kbps     00:07:13.850    134 451 bytes   335 104 bytes   00:08:12.658
3               0:11:29.939     0:06:46.405     23 269 kbps     47 836 kbps     00:14:23.612    38 892 kbps     00:14:21.151    35 431 kbps     00:14:15.521    121 312 bytes   332 016 bytes   00:17:02.521
4               0:18:16.345     0:06:11.996     25 875 kbps     42 915 kbps     00:22:44.863    35 399 kbps     00:22:54.748    33 449 kbps     00:22:42.069    134 903 bytes   341 489 bytes   00:20:10.542
5               0:24:28.341     0:05:35.376     25 563 kbps     47 824 kbps     00:27:56.299    42 094 kbps     00:27:55.548    38 017 kbps     00:27:51.336    133 274 bytes   357 875 bytes   00:29:50.747
6               0:30:03.718     0:07:51.929     26 433 kbps     48 437 kbps     00:37:37.672    36 272 kbps     00:32:18.144    33 166 kbps     00:37:14.106    137 809 bytes   385 627 bytes   00:32:34.869
7               0:37:55.648     0:06:25.259     27 047 kbps     44 553 kbps     00:43:36.113    33 390 kbps     00:42:41.100    31 888 kbps     00:42:38.973    141 008 bytes   420 310 bytes   00:37:57.149
8               0:44:20.908     0:07:20.815     27 379 kbps     47 843 kbps     00:48:58.185    37 019 kbps     00:46:13.187    33 435 kbps     00:46:12.394    142 744 bytes   353 915 bytes   00:51:27.000
9               0:51:41.723     0:07:31.492     26 241 kbps     46 341 kbps     00:55:39.335    42 812 kbps     00:51:47.979    40 537 kbps     00:51:47.979    136 811 bytes   348 387 bytes   00:57:43.668
10              0:59:13.216     0:06:50.785     28 890 kbps     46 704 kbps     01:01:20.093    38 223 kbps     01:01:32.814    36 666 kbps     01:01:34.816    150 622 bytes   414 424 bytes   01:01:36.776
11              1:06:04.001     0:05:28.870     28 432 kbps     48 273 kbps     01:06:04.585    39 297 kbps     01:06:16.138    35 982 kbps     01:06:04.126    148 230 bytes   425 734 bytes   01:07:40.264
12              1:11:32.871     0:06:27.553     26 386 kbps     39 921 kbps     01:11:58.939    34 710 kbps     01:16:02.516    34 245 kbps     01:15:57.511    137 563 bytes   332 609 bytes   01:15:19.473
13              1:18:00.425     0:08:06.903     24 624 kbps     49 350 kbps     01:25:08.561    39 673 kbps     01:25:18.113    37 695 kbps     01:25:56.401    128 378 bytes   395 690 bytes   01:25:05.600
14              1:26:07.328     0:06:34.602     24 182 kbps     47 191 kbps     01:32:31.337    38 380 kbps     01:28:00.191    35 766 kbps     01:27:57.105    126 071 bytes   342 864 bytes   01:31:58.846
15              1:32:41.931     0:06:06.991     25 834 kbps     45 450 kbps     01:33:42.950    34 603 kbps     01:34:25.451    31 996 kbps     01:33:35.985    134 688 bytes   351 591 bytes   01:38:45.169
16              1:38:48.923     0:03:33.213     7 028 kbps      14 461 kbps     01:42:18.340    11 043 kbps     01:42:02.533    10 563 kbps     01:41:59.363    36 647 bytes    178 908 bytes   01:42:04.868
STREAM DIAGNOSTICS:
File            PID             Type            Codec           Language                Seconds                 Bitrate                 Bytes           Packets
----            ---             ----            -----           --------                --------------          --------------          -------------   -----
00007.M2TS      4113 (0x1011)   0x1B            AVC                                     6142,053                24 900                  19 116 763 001  103 981 407
00007.M2TS      4352 (0x1100)   0x86            DTS-HD MA       rus (Russian)           6142,053                2 127                   1 633 309 088   9 841 294
00007.M2TS      4353 (0x1101)   0x86            DTS-HD MA       eng (English)           6142,053                2 297                   1 763 471 912   10 542 552
00007.M2TS      4608 (0x1200)   0x90            PGS             est (Estonian)          6142,053                18                      13 991 141      82 130
00007.M2TS      4609 (0x1201)   0x90            PGS             lav (Latvian)           6142,053                17                      12 997 430      76 726
00007.M2TS      4610 (0x1202)   0x90            PGS             lit (Lithuanian)        6142,053                18                      13 756 373      80 781
00007.M2TS      4611 (0x1203)   0x90            PGS             ukr (Ukrainian)         6142,053                19                      14 630 925      84 867
00007.M2TS      4612 (0x1204)   0x90            PGS             zho (Chinese)           6142,053                18                      13 763 695      80 613
00007.M2TS      4613 (0x1205)   0x90            PGS             zho (Chinese)           6142,053                17                      12 796 955      74 739
00007.M2TS      4614 (0x1206)   0x90            PGS             zho (Chinese)           6142,053                17                      13 413 698      78 731
QUICK SUMMARY:
Disc Title: Insidious.2010.Blu-Ray
Disc Size: 24 140 708 262 bytes
Protection: AACS
BD-Java: No
Playlist: 00004.MPLS
Size: 24 024 987 648 bytes
Length: 1:42:22
Total Bitrate: 31,29 Mbps
Video: MPEG-4 AVC Video / 24899 kbps / 1080p / 23,976 fps / 16:9 / High Profile 4.1
Audio: English / DTS-HD Master Audio / 5.1 / 48 kHz / 2297 kbps / 16-bit (DTS Core: 5.1 / 48 kHz / 1509 kbps / 16-bit)
Audio: Russian / DTS-HD Master Audio / 5.1 / 48 kHz / 2127 kbps / 16-bit (DTS Core: 5.1 / 48 kHz / 1509 kbps / 16-bit)
Subtitle: Chinese / 17,927 kbps
Subtitle: Chinese / 16,668 kbps
Subtitle: Chinese / 17,471 kbps
Subtitle: Estonian / 18,223 kbps
Subtitle: Latvian / 16,929 kbps
Subtitle: Lithuanian / 17,917 kbps
Subtitle: Ukrainian / 19,056 kbps
********************
PLAYLIST: 00001.MPLS
********************
Total   Video
Title                                                           Codec   Length  Movie Size      Disc Size       Bitrate Bitrate Main Audio Track                          Secondary Audio Track
-----                                                           ------  ------- --------------  --------------  ------- ------- ------------------                        ---------------------
00001.MPLS                                                      AVC     0:00:24 7 692 288       24 140 708 262  2,56    2,39
DISC INFO:
Disc Title:     Insidious.2010.Blu-Ray
Disc Size:      24 140 708 262 bytes
Protection:     AACS
BD-Java:        No
BDInfo:         0.5.6
PLAYLIST REPORT:
Name:                   00001.MPLS
Length:                 0:00:24 (h:m:s)
Size:                   7 692 288 bytes
Total Bitrate:          2,56 Mbps
VIDEO:
Codec                   Bitrate             Description
-----                   -------             -----------
MPEG-4 AVC Video        2386 kbps           1080p / 23,976 fps / 16:9 / High Profile 4.1
FILES:
Name            Time In         Length          Size            Total Bitrate
----            -------         ------          ----            -------------
00001.M2TS      0:00:00.000     0:00:12.011     4 896 768       3 261
00002.M2TS      0:00:12.011     0:00:12.011     2 795 520       1 862
CHAPTERS:
Number          Time In         Length          Avg Video Rate  Max 1-Sec Rate  Max 1-Sec Time  Max 5-Sec Rate  Max 5-Sec Time  Max 10Sec Rate  Max 10Sec Time  Avg Frame Size  Max Frame Size  Max Frame Time
------          -------         ------          --------------  --------------  --------------  --------------  --------------  --------------  --------------  --------------  --------------  --------------
1               0:00:00.000     0:00:24.023     2 386 kbps      11 264 kbps     00:00:11.219    3 851 kbps      00:00:07.465    2 916 kbps      00:00:02.961    12 442 bytes    179 417 bytes   00:00:08.258
STREAM DIAGNOSTICS:
File            PID             Type            Codec           Language                Seconds                 Bitrate                 Bytes           Packets
----            ---             ----            -----           --------                --------------          --------------          -------------   -----
00001.M2TS      4113 (0x1011)   0x1B            AVC                                     11,845                  3 102                   4 593 114       25 099
00002.M2TS      4113 (0x1011)   0x1B            AVC                                     11,929                  1 726                   2 573 506       14 130
QUICK SUMMARY:
Disc Title: Insidious.2010.Blu-Ray
Disc Size: 24 140 708 262 bytes
Protection: AACS
BD-Java: No
Playlist: 00001.MPLS
Size: 7 692 288 bytes
Length: 0:00:24
Total Bitrate: 2,56 Mbps
Video: MPEG-4 AVC Video / 2386 kbps / 1080p / 23,976 fps / 16:9 / High Profile 4.1

[Цитировать]



Показать сообщения:    

Текущее время: 10-Дек 21:32

Часовой пояс: UTC + 3


Вы не можете начинать темы
Вы не можете отвечать на сообщения
Вы не можете редактировать свои сообщения
Вы не можете удалять свои сообщения
Вы не можете голосовать в опросах
Вы не можете прикреплять файлы к сообщениям
Вы не можете скачивать файлы

!ВНИМАНИЕ!
Сайт не предоставляет электронные версии произведений, а занимается лишь коллекционированием и каталогизацией ссылок, присылаемых и публикуемых на форуме нашими читателями. Если вы являетесь правообладателем какого-либо представленного материала и не желаете, чтобы ссылка на него находилась в нашем каталоге, свяжитесь с нами, и мы незамедлительно удалим ее. Файлы для обмена на трекере предоставлены пользователями сайта, и администрация не несет ответственности за их содержание. Просьба не заливать файлы, защищенные авторскими правами, а также файлы нелегального содержания!