[ Сегодня идет свободное скачивание без начисления Download ]


Статистика раздачи
Нет
 
   
 
Top  
 
 
Тетрадь смерти / Desu noto«The human whose name is written in this note shall die.»
Год выпуска: 2006
Страна: Япония
Производство: Death Note Film Partners, Nippon Television Network, Shueisha, Warner Bros.
Жанр: Фэнтези, Драма, Криминал, Детектив, Приключения
Режиссер: Сюскэ Канэко
В ролях: Татсуя Фудживара, Матсуяма Кеничи, Асака Сето, Шигеки Хосокава, Эрика Тода, Сюндзи Фуджимура, Такеши Кага, Касии Ю, Шидо Накамура, Рёхеи Абе
Перевод: Профессиональный (одноголосый)
Субтитры: Отсутствуют
Описание: В основном сюжет вертится вокруг студента старшей школы Ягами Лайта, который решил освободить мир от зла с помощью сверхъестественной «Тетради Смерти». Если написать настоящее имя человека в эту тетрадь, то он умрёт. Однако одного имени недостаточно: необходимо знать также и внешность жертвы. Ягами Лайт начинает массовые убийства преступников по всему миру с помощью этой тетради, но его берётся остановить таинственный детектив «L».
[kp]257534[/kp] [imdb]tt0810827[/imdb]
Качество: DVDRip
Продолжительность: 02:06:38
Формат: AVI
Видео кодек: XviD
Аудио кодек: MP3
Видео: 720x480 (16:9), 29.970 fps, XviD ~797 kbps avg, 0.077 bit/pixel
Аудио: 48 kHz, MPEG Layer 3, 2 ch, ~128.00 kbps avg
Премьера (мир): 17 июня 2006

Media Info

Видео
Идентификатор                            : 0
Формат                                   : MPEG-4 Visual
Профиль формата                          : [email protected]
Параметр BVOP формата                    : Нет
Параметр QPel формата                    : Нет
Параметр GMC формата                     : Без точки перехода
Параметр матрицы формата                 : Default (H.263)
Идентификатор кодека                     : XVID
Идентификатор кодека/Подсказка           : XviD
Продолжительность                        : 2 ч. 6 м.
Битрейт                                  : 797 Кбит/сек
Ширина                                   : 720 пикселей
Высота                                   : 480 пикселей
Соотношение сторон                       : 16:9
Частота кадров                           : 29,970 кадров/сек
Стандарт вещания                         : NTSC
Цветовое пространство                    : YUV
Субдискретизация насыщенности            : 4:2:0
Битовая глубина                          : 8 бит
Тип развёртки                            : Прогрессивная
Метод сжатия                             : С потерями
Бит/(Пиксели*Кадры)                      : 0.077
Размер потока                            : 722 Мбайт (86%)
Заголовок                                : VTS_01_1.avi Видео #1
Библиотека кодирования                   : XviD 1.2.1 (UTC 2008-12-04)
Аудио
Идентификатор                            : 1
Формат                                   : MPEG Audio
Версия формата                           : Version 1
Профиль формата                          : Layer 3
Режим                                    : Joint stereo
Расширение режима                        : MS Stereo
Идентификатор кодека                     : 55
Идентификатор кодека/Подсказка           : MP3
Продолжительность                        : 2 ч. 6 м.
Вид битрейта                             : Постоянный
Битрейт                                  : 128 Кбит/сек
Каналы                                   : 2 канала
Частота                                  : 48,0 КГц
Метод сжатия                             : С потерями
Размер потока                            : 116 Мбайт (14%)
Выравнивание                             : Разделение по промежуткам
Продолжительность промежутка             : 8188  мс. (245,38 видеокадров)
Заголовок                                : VTS_01_1.avi Аудио #1
Библиотека кодирования                   : LAME3.98

Скриншоты



[Цитировать]



Показать сообщения:    

Текущее время: 06-Дек 05:55

Часовой пояс: UTC + 3


Вы не можете начинать темы
Вы не можете отвечать на сообщения
Вы не можете редактировать свои сообщения
Вы не можете удалять свои сообщения
Вы не можете голосовать в опросах
Вы не можете прикреплять файлы к сообщениям
Вы не можете скачивать файлы

!ВНИМАНИЕ!
Сайт не предоставляет электронные версии произведений, а занимается лишь коллекционированием и каталогизацией ссылок, присылаемых и публикуемых на форуме нашими читателями. Если вы являетесь правообладателем какого-либо представленного материала и не желаете, чтобы ссылка на него находилась в нашем каталоге, свяжитесь с нами, и мы незамедлительно удалим ее. Файлы для обмена на трекере предоставлены пользователями сайта, и администрация не несет ответственности за их содержание. Просьба не заливать файлы, защищенные авторскими правами, а также файлы нелегального содержания!