[ Сегодня идет свободное скачивание без начисления Download ]


Статистика раздачи
Нет
 
   
 
Top  
 
 
Ледниковый период 4: Континентальный дрейф / Ice Age: Continental Drift- Год выпуска: 2012
Страна: США
Жанр: мультфильм, комедия, приключения, семейный
Продолжительность: 01:27:45
Перевод: Профессиональный (полное дублирование)
Cубтитры: Английские, португальские, испанские, хорватские, русские, чешские, эстонские, латвийские, литовские, словацкие, словенские, украинские-Режиссер: Стив Мартино / Steve Martino, Майк Тёрмайер / Mike Thurmeier
Роли озвучивали: Рэй Романо, Джон Легуизамо, Куин Латифа, Дэнис Лири, Джош Пек, Азиз Ансари, Джой Бехар, Кристофер Кэмпбелл, Ален Шаба, Эстер Дин
О фильме: После приключений под землей прошло семь лет. Случился дрейф континентов. Главные герои мультфильма, отделённые от стада, вынуждены использовать айсберг в качестве плота. Они пересекают океан и попадают в неизвестные им ранее земли с экзотическими животными и пиратами, враждебно настроенными к ним. Скрэту удаётся получить свой жёлудь, но он перемещается в новые для него земли.-*** Supplements:
• Вот такая вот история - русский дубляж.
• Отсутствующие звенья - русский дубляж.
• Как поймать комманду - русские субтитры.
• Бабушка и запах ленивцев - русский дубляж.
• Огромная история: дрейфы, ущелья, звери и мифы - русский дубляж.
• Скрат украл твой язык - русский дубляж.
• Скратист - русский дубляж.
• 2 музыкальных клипа - без перевода.
• Ролики для кинотеатров - без перевода.

Качество: Blu Ray
Формат: BDMV
Видео: 1920x1080p / 23,976 fps / 16:9 /MPEG-4 AVC Video, High Profile 4.1 ~ 19494 kbps
Аудио #1: DTS-HD Master Audio English 3915 kbps 5.1 / 48 kHz / 3915 kbps / 24-bit (DTS Core: 5.1 / 48 kHz / 1509 kbps / 24-bit)
Аудио #2: English 48 kHz, AC3 Dolby Digital, 3/2 (L,C,R,l,r) + LFE ch, ~448.00 kbps avg
Аудио #3: Spanish 48 kHz, AC3 Dolby Digital, 3/2 (L,C,R,l,r) + LFE ch, ~448.00 kbps avg
Аудио #4: Portuguese 48 kHz, AC3 Dolby Digital, 3/2 (L,C,R,l,r) + LFE ch, ~448.00 kbps avg
Аудио #5: Russian 48 kHz, DTS, 3/2 (L,C,R,l,r) + LFE ch, ~768.00 kbps avg
Аудио #6: Chroatian 48 kHz, AC3 Dolby Digital, 3/2 (L,C,R,l,r) + LFE ch, ~448.00 kbps avg
Аудио #7: Czech 48 kHz, AC3 Dolby Digital, 3/2 (L,C,R,l,r) + LFE ch, ~448.00 kbps avg
Аудио #8: Estonian 48 kHz, AC3 Dolby Digital, 3/2 (L,C,R,l,r) + LFE ch, ~448.00 kbps avg
Аудио #9: Latvian 48 kHz, AC3 Dolby Digital, 3/2 (L,C,R,l,r) + LFE ch, ~448.00 kbps avg
Аудио #10: Lithuanian 48 kHz, AC3 Dolby Digital, 3/2 (L,C,R,l,r) + LFE ch, ~448.00 kbps avg
Аудио #11: Slovak 48 kHz, AC3 Dolby Digital, 3/2 (L,C,R,l,r) + LFE ch, ~448.00 kbps avg
Аудио #12: Slovenian 48 kHz, AC3 Dolby Digital, 3/2 (L,C,R,l,r) + LFE ch, ~448.00 kbps avg
Аудио #13: Ukrainian 48 kHz, AC3 Dolby Digital, 3/2 (L,C,R,l,r) + LFE ch, ~448.00 kbps avg-

BDInfo


DISC INFO:
Disc Title: ICE_AGE_4__HDCLUB
Disc Size: 43 259 235 577 bytes
Protection: AACS
BD-Java: Yes
BDInfo: 0.5.8
PLAYLIST REPORT:
Name: 00800.MPLS
Length: 1:27:45.259 (h:m:s.ms)
Size: 20 643 661 824 bytes
Total Bitrate: 31,37 Mbps
Angle 1 Length: 0:14:35.416 (h:m:s.ms) / 1:27:45.259 (h:m:s.ms)
Angle 1 Size: 3 420 850 176 bytes / 20 642 242 560 bytes
Angle 1 Total Bitrate: 31,26 Mbps / 31,36 Mbps
Angle 2 Length: 0:04:12.835 (h:m:s.ms) / 1:27:45.259 (h:m:s.ms)
Angle 2 Size: 987 297 792 bytes / 20 643 760 128 bytes
Angle 2 Total Bitrate: 31,24 Mbps / 31,37 Mbps
All Angles Length: 1:46:33.511 (h:m:s.ms)
All Angles Size: 25 051 809 792 bytes
All Angles Bitrate: 31,35 Mbps
(*) Indicates included stream hidden by this playlist.
VIDEO:
Codec Bitrate Description
----- ------- -----------
MPEG-4 AVC Video 19494 kbps 1080p / 23,976 fps / 16:9 / High Profile 4.1
MPEG-4 AVC Video (1) 3240 (19485) kbps 1080p / 23,976 fps / 16:9 / High Profile 4.1
MPEG-4 AVC Video (2) 936 (19498) kbps 1080p / 23,976 fps / 16:9 / High Profile 4.1
AUDIO:
Codec Language Bitrate Description
----- -------- ------- -----------
DTS-HD Master Audio English 3915 kbps 5.1 / 48 kHz / 3915 kbps / 24-bit (DTS Core: 5.1 / 48 kHz / 1509 kbps / 24-bit)
Dolby Digital Audio English 448 kbps 5.1 / 48 kHz / 448 kbps
Dolby Digital Audio Spanish 448 kbps 5.1 / 48 kHz / 448 kbps
Dolby Digital Audio Portuguese 448 kbps 5.1 / 48 kHz / 448 kbps
DTS Audio Russian 768 kbps 5.1 / 48 kHz / 768 kbps / 24-bit
Dolby Digital Audio Croatian 448 kbps 5.1 / 48 kHz / 448 kbps
Dolby Digital Audio Czech 448 kbps 5.1 / 48 kHz / 448 kbps
Dolby Digital Audio Estonian 448 kbps 5.1 / 48 kHz / 448 kbps
Dolby Digital Audio Latvian 448 kbps 5.1 / 48 kHz / 448 kbps
Dolby Digital Audio Lithuanian 448 kbps 5.1 / 48 kHz / 448 kbps
Dolby Digital Audio Slovak 448 kbps 5.1 / 48 kHz / 448 kbps
Dolby Digital Audio Slovenian 448 kbps 5.1 / 48 kHz / 448 kbps
Dolby Digital Audio Ukrainian 448 kbps 5.1 / 48 kHz / 448 kbps
SUBTITLES:
Codec Language Bitrate Description
----- -------- ------- -----------
Presentation Graphics English 48,785 kbps
Presentation Graphics Spanish 31,007 kbps
Presentation Graphics Portuguese 29,290 kbps
Presentation Graphics Russian 31,934 kbps
Presentation Graphics Croatian 27,539 kbps
Presentation Graphics Czech 27,955 kbps
Presentation Graphics Estonian 30,494 kbps
Presentation Graphics Latvian 29,681 kbps
Presentation Graphics Lithuanian 29,896 kbps
Presentation Graphics Slovak 32,097 kbps
Presentation Graphics Slovenian 24,328 kbps
Presentation Graphics Ukrainian 31,514 kbps
* Presentation Graphics Portuguese 0,900 kbps
FILES:
Name Time In Length Size Total Bitrate
---- ------- ------ ---- -------------
00501.M2TS 0:00:00.000 0:00:23.481 91 140 096 31 050
00552.M2TS (1) 0:00:00.000 0:00:23.481 91 146 240 31 053
00553.M2TS (2) 0:00:00.000 0:00:23.481 91 152 384 31 055
00502.M2TS 0:00:23.481 0:01:12.989 280 725 504 30 769
00562.M2TS (1) 0:00:23.481 0:01:12.989 280 645 632 30 760
00563.M2TS (2) 0:00:23.481 0:01:12.989 280 750 080 30 772
00909.M2TS 0:01:36.471 0:00:23.773 92 368 896 31 083
00915.M2TS (1) 0:01:36.471 0:00:23.773 92 375 040 31 085
00916.M2TS (2) 0:01:36.471 0:00:23.773 92 399 616 31 093
00910.M2TS 0:02:00.245 0:02:12.590 522 964 992 31 554
00917.M2TS (1) 0:02:00.245 0:02:12.590 522 946 560 31 553
00918.M2TS (2) 0:02:00.245 0:02:12.590 522 995 712 31 555
00505.M2TS 0:04:12.835 0:01:48.191 427 321 344 31 597
00506.M2TS 0:06:01.027 0:00:07.966 31 703 040 31 837
00507.M2TS 0:06:08.993 0:03:48.895 897 601 536 31 372
00508.M2TS 0:09:57.888 0:00:44.419 175 054 848 31 528
00509.M2TS 0:10:42.308 0:08:19.874 1 973 053 440 31 577
00511.M2TS 0:19:02.182 0:00:23.189 92 504 064 31 912
00512.M2TS 0:19:25.372 0:06:50.451 1 588 353 024 30 958
00513.M2TS 0:26:15.824 0:00:38.288 149 858 304 31 312
00514.M2TS 0:26:54.112 0:01:41.226 396 742 656 31 355
00515.M2TS 0:28:35.338 0:00:06.673 26 793 984 32 121
00516.M2TS 0:28:42.011 0:00:24.649 97 634 304 31 687
00517.M2TS 0:29:06.661 0:00:10.093 39 641 088 31 419
00518.M2TS 0:29:16.754 0:02:36.072 617 883 648 31 672
00519.M2TS 0:31:52.827 0:00:25.108 99 047 424 31 558
00520.M2TS 0:32:17.935 0:13:21.133 3 134 287 872 31 299
00522.M2TS 0:45:39.069 0:00:25.275 100 055 040 31 669
00523.M2TS 0:46:04.344 0:01:17.285 302 155 776 31 277
00524.M2TS 0:47:21.630 0:00:11.886 46 338 048 31 186
00525.M2TS 0:47:33.517 0:03:05.852 732 862 464 31 546
00526.M2TS 0:50:39.369 0:00:16.766 66 619 392 31 786
00527.M2TS 0:50:56.136 0:01:40.642 397 240 320 31 576
00528.M2TS 0:52:36.778 0:00:09.968 39 690 240 31 853
00529.M2TS 0:52:46.746 0:01:03.730 251 179 008 31 530
00530.M2TS 0:53:50.477 0:00:31.906 122 370 048 30 682
00531.M2TS 0:54:22.383 0:06:05.406 1 429 727 232 31 302
00532.M2TS 1:00:27.790 0:00:28.403 113 344 512 31 924
00533.M2TS 1:00:56.193 0:01:11.529 277 309 440 31 015
00534.M2TS 1:02:07.723 0:00:19.811 76 038 144 30 705
00535.M2TS 1:02:27.535 0:06:02.070 1 418 016 768 31 331
00536.M2TS 1:08:29.605 0:00:08.550 34 099 200 31 905
00537.M2TS 1:08:38.155 0:03:09.397 752 228 352 31 774
00538.M2TS 1:11:47.552 0:00:07.549 30 695 424 32 528
00539.M2TS 1:11:55.102 0:01:32.008 363 442 176 31 601
00540.M2TS 1:13:27.110 0:00:22.772 89 634 816 31 488
00541.M2TS 1:13:49.883 0:03:32.795 830 865 408 31 236
00546.M2TS 1:17:22.679 0:10:22.580 2 435 069 952 31 290
00932.M2TS (1) 1:17:22.679 0:10:22.580 2 433 736 704 31 273
- -

[Цитировать]



Показать сообщения:    

Текущее время: 06-Дек 03:55

Часовой пояс: UTC + 3


Вы не можете начинать темы
Вы не можете отвечать на сообщения
Вы не можете редактировать свои сообщения
Вы не можете удалять свои сообщения
Вы не можете голосовать в опросах
Вы не можете прикреплять файлы к сообщениям
Вы не можете скачивать файлы

!ВНИМАНИЕ!
Сайт не предоставляет электронные версии произведений, а занимается лишь коллекционированием и каталогизацией ссылок, присылаемых и публикуемых на форуме нашими читателями. Если вы являетесь правообладателем какого-либо представленного материала и не желаете, чтобы ссылка на него находилась в нашем каталоге, свяжитесь с нами, и мы незамедлительно удалим ее. Файлы для обмена на трекере предоставлены пользователями сайта, и администрация не несет ответственности за их содержание. Просьба не заливать файлы, защищенные авторскими правами, а также файлы нелегального содержания!