[ Сегодня идет свободное скачивание без начисления Download ]


Статистика раздачи
Нет
 
   
 
Top  
 
 
-Шрек / Shrek- Страна: США
Жанр: комедия, приключения, семейный, мультфильм
Продолжительность: 01:30:04
Год выпуска: 2001
Перевод: Профессиональный (дублированный)
Русские субтитры: есть-Режиссёр: Эндрю Адамсон, Вики Дженсон / Andrew Adamson, Vicky Jenson
Роли озвучивали: Майк Майерс, Эдди Мёрфи, Кэмерон Диаз, Джон Литгоу, Венсан Кассель, Питер Дэннис, Клив Пирс, Джим Каммингс, Бобби Блок, Крис Миллер-Описание: Жил да был в сказочном государстве большой зеленый великан по имени Шрек. Жил он в гордом одиночестве в лесу, на болоте, которое считал своим. Но однажды злобный коротышка - лорд Фаркуад, правитель волшебного королевства, безжалостно согнал на Шреково болото всех сказочных обитателей.
И беспечной жизни зеленого тролля пришел конец. Но лорд Фаркуад пообещал вернуть Шреку болото, если великан добудет ему прекрасную принцессу Фиону, которая томится в неприступной башне, охраняемой огнедышащим драконом...
Потрясающий мультфильм занял свое заслуженное место в пятерке самых кассовых мультфильмов всех времен.- -Качество: BDRemux
Формат: BDMV
Видео: MPEG-4 AVC Video 22339 kbps 1080p / 23,976 fps / 16:9 / High Profile 4.1
Аудио: Английский Dolby TrueHD 7.1
Аудио 1: English: 48 kHz, AC3 Dolby Digital, 3/2 (L,C,R,l,r) + LFE ch, ~448 kbps
Аудио 2: Русский Dolby Digital 5.1 (640 kbps) (Дубляж)
Аудио 3: Russian: 48 kHz, AC3 Dolby Digital, 3/2 (L,C,R,l,r) + LFE ch, ~448 kbps |MVO (Киномания)
Аудио 4: Russian: 48 kHz, AC3 Dolby Digital, 3/2 (L,C,R,l,r) + LFE ch, ~448 kbps |AVO (Гаврилов)|
Аудио 5: Russian: 48 kHz, AC3 Dolby Digital, 3/2 (L,C,R,l,r) + LFE ch, ~448 kbps |AVO (Гоблин)|
Аудио 6: Russian: 48 kHz, AC3 Dolby Digital, 3/2 (L,C,R,l,r) + LFE ch, ~448 kbps |AVO (Визгунов)|
Субтитры: Корейские, китайские, русские, английские, турецкие-

BDInfo

Disc Title: Шрек (BDRemux MY)
Disc Size: 21 331 985 160 bytes
Protection: AACS
BD-Java: No
BDInfo: 0.5.6
Notes:
BDINFO HOME:
Cinema Squid
http://www.cinemasquid.com/blu-ray/tools/bdinfo
INCLUDES FORUMS REPORT FOR:
AVS Forum Blu-ray Audio and Video Specifications Thread
http://www.avsforum.com/avs-vb/showthread.php?t=1155731
********************
PLAYLIST: 00000.MPLS
********************
Total   Video
Title                                                           Codec   Length  Movie Size      Disc Size       Bitrate Bitrate Main Audio Track                          Secondary Audio Track
-----                                                           ------  ------- --------------  --------------  ------- ------- ------------------                        ---------------------
00000.MPLS                                                      AVC     1:30:04 21 331 906 560  21 331 985 160  31,58   22,34   Dolby TrueHD 7.1 3218Kbps (48kHz/16-bit)
DISC INFO:
Disc Title:     Шрек (BDRemux MY)
Disc Size:      21 331 985 160 bytes
Protection:     AACS
BD-Java:        No
BDInfo:         0.5.6
PLAYLIST REPORT:
Name:                   00000.MPLS
Length:                 1:30:04 (h:m:s)
Size:                   21 331 906 560 bytes
Total Bitrate:          31,58 Mbps
VIDEO:
Codec                   Bitrate             Description
-----                   -------             -----------
MPEG-4 AVC Video        22344 kbps          1080p / 23,976 fps / 16:9 / High Profile 4.1
AUDIO:
Codec                           Language        Bitrate         Description
-----                           --------        -------         -----------
Dolby TrueHD Audio              English         3218 kbps       7.1 / 48 kHz / 3218 kbps / 16-bit (AC3 Embedded: 5.1 / 48 kHz / 640 kbps)
Dolby Digital Audio

Скриншоты

Скриншот с названием мультфильма:

Скриншоты:
-Шрек 2 / Shrek 2- Страна: США
Жанр: комедия, приключения, семейный, мультфильм
Продолжительность: 01:32:23
Год выпуска: 2004
Перевод: Профессиональный (дублированный)
Русские субтитры: есть-Режиссёр: Эндрю Адамсон, Келли Эсбёри / Andrew Adamson, Kelly Asbury
Роли озвучивали: Майк Майерс, Эдди Мёрфи, Кэмерон Диаз, Джули Эндрюс, Антонио Бандерас, Джон Клиз, Руперт Эверет, Дженнифер Сoндерс, Арон Уорнер, Келли Эсбёри-Описание: Шрэк и Фиона возвращаются после медового месяца и находят письмо от родителей Фионы с приглашением на ужин. Однако те не подозревают, что их дочь тоже стала троллем! Вместе с Осликом счастливая пара отправляется в путешествие, полное неожиданностей, и попадает в круговорот событий, во время которых приобретает множество друзей…--Качество: BDRemux
Формат: BDMV
Видео: MPEG-4 AVC Video, 1080p/23.976 fps/16:9/High Profile 4.1
Аудио 1: Английский Dolby TrueHD 7.1
Аудио 2: English: 48 kHz, AC3 Dolby Digital, 3/2 (L,C,R,l,r) + LFE ch, ~448 kbps
Аудио 3: Русский Dolby Digital 5.1 (640 kbps) (Дубляж)
Аудио 4: Russian: 48 kHz, AC3 Dolby Digital, 3/2 (L,C,R,l,r) + LFE ch, ~448 kbps |MVO|
Аудио 5: Russian: 48 kHz, AC3 Dolby Digital, 3/2 (L,C,R,l,r) + LFE ch, ~448 kbps |AVO (Гаврилов)|
Аудио 6: Russian: 48 kHz, AC3 Dolby Digital, 3/2 (L,C,R,l,r) + LFE ch, ~448 kbps |AVO (Гоблин, правильный перевод)|
Аудио 7: Russian: 48 kHz, AC3 Dolby Digital, 3/2 (L,C,R,l,r) + LFE ch, ~448 kbps |AVO (Гоблин, смешной перевод)|
Субтитры: Немецкие, корейские, китайские, русские, турецкие, английские

BDInfo

Disc Title: Шрек 2 (BDRemux MY)Disc Size: 22 088 927 904 bytesProtection: AACSBD-Java: NoBDInfo: 0.5.6
Notes:
BDINFO HOME: Cinema Squid http://www.cinemasquid.com/blu-ray/tools/bdinfo
INCLUDES FORUMS REPORT FOR: AVS Forum Blu-ray Audio and Video Specifications Thread http://www.avsforum.com/avs-vb/showthread.php?t=1155731
********************PLAYLIST: 00000.MPLS********************
Total   Video
Title                                                           Codec   Length  Movie Size      Disc Size       Bitrate Bitrate Main Audio Track                          Secondary Audio Track
-----                                                           ------  ------- --------------  --------------  ------- ------- ------------------                        ---------------------
00000.MPLS                                                      AVC     1:32:23 22 088 847 360  22 088 927 904  31,88   22,56   Dolby TrueHD 7.1 3251Kbps (48kHz/16-bit)  DD AC3 5.1 448Kbps
DISC INFO:
Disc Title:     Шрек 2 (BDRemux MY)
Disc Size:      22 088 927 904 bytes
Protection:     AACS
BD-Java:        No
BDInfo:         0.5.6
PLAYLIST REPORT:
Name:                   00000.MPLS
Length:                 1:32:23 (h:m:s)
Size:                   22 088 847 360 bytes
Total Bitrate:          31,88 Mbps
VIDEO:
Codec                   Bitrate             Description
-----                   -------             -----------
MPEG-4 AVC Video        22562 kbps          1080p / 23,976 fps / 16:9 / High Profile 4.1
AUDIO:
Codec                           Language        Bitrate         Description
-----                           --------        -------         -----------
Dolby TrueHD Audio              English         3251 kbps       7.1 / 48 kHz / 3251 kbps / 16-bit (AC3 Embedded: 5.1 / 48 kHz / 640 kbps)
Dolby Digital Audio             English         448 kbps        5.1 / 48 kHz / 448 kbps
Dolby Digital Audio             Russian         640 kbps        5.1 / 48 kHz / 640 kbps / DN -4dB
Dolby Digital Audio             Russian         448 kbps        5.1 / 48 kHz / 448 kbps
Dolby Digital Audio             Russian         448 kbps        5.1 / 48 kHz / 448 kbps / DN -3dB
Dolby Digital Audio             Russian         448 kbps        5.1 / 48 kHz / 448 kbps
Dolby Digital Audio             Russian         448 kbps        5.1 / 48 kHz / 448 kbps
SUBTITLES:
Codec                           Language        Bitrate         Description
-----                           --------        -------         -----------
Presentation Graphics           English         27,902 kbps
Presentation Graphics           Chinese         0,013 kbps
Presentation Graphics           German          0,039 kbps
Presentation Graphics           Korean          0,007 kbps
Presentation Graphics           Russian         0,009 kbps
Presentation Graphics           Turkish         0,008 kbps
FILES:
Name            Time In         Length          Size            Total Bitrate
----            -------         ------          ----            -------------
00000.M2TS      0:00:00.000     1:32:23.360     22 088 847 360  31 878
CHAPTERS:
Number          Time In         Length          Avg Video Rate  Max 1-Sec Rate  Max 1-Sec Time  Max 5-Sec Rate  Max 5-Sec Time  Max 10Sec Rate  Max 10Sec Time  Avg Frame Size  Max Frame Size  Max Frame Time
------          -------         ------          --------------  --------------  --------------  --------------  --------------  --------------  --------------  --------------  --------------  --------------
1               0:00:00.000     0:05:00.000     22 487 kbps     29 919 kbps     00:03:37.467    26 823 kbps     00:01:11.404    26 234 kbps     00:01:07.776    117 220 bytes   946 574 bytes   00:03:17.447
2               0:05:00.000     0:05:00.000     23 904 kbps     31 073 kbps     00:09:50.715    26 831 kbps     00:09:49.839    25 951 kbps     00:09:49.839    124 621 bytes   785 173 bytes   00:05:07.181
3               0:10:00.000     0:05:00.000     24 603 kbps     31 659 kbps     00:13:21.467    26 790 kbps     00:13:28.807    25 990 kbps     00:12:56.484    128 266 bytes   976 602 bytes   00:13:28.849
4               0:15:00.000     0:05:00.000     22 515 kbps     28 432 kbps     00:17:17.494    24 735 kbps     00:18:11.006    24 057 kbps     00:17:52.696    117 382 bytes   732 253 bytes   00:17:02.688
5               0:20:00.000     0:05:00.000     22 711 kbps     31 705 kbps     00:20:46.370    26 341 kbps     00:20:51.208    26 017 kbps     00:20:46.203    118 400 bytes   746 658 bytes   00:23:59.271
6               0:25:00.000     0:05:00.000     22 894 kbps     28 176 kbps     00:27:44.788    25 960 kbps     00:27:55.507    25 360 kbps     00:27:52.545    119 371 bytes   696 366 bytes   00:27:09.252
7               0:30:00.000     0:05:00.000     23 191 kbps     30 844 kbps     00:34:02.165    26 941 kbps     00:33:39.225    25 893 kbps     00:34:07.211    120 904 bytes   759 010 bytes   00:33:52.697
8               0:35:00.000     0:05:00.000     24 162 kbps     30 497 kbps     00:37:23.824    26 560 kbps     00:37:50.810    26 223 kbps     00:37:49.392    125 964 bytes   796 538 bytes   00:35:50.523
9               0:40:00.000     0:05:00.000     23 816 kbps     29 661 kbps     00:40:48.904    27 038 kbps     00:41:57.056    26 501 kbps     00:41:52.051    124 162 bytes   885 079 bytes   00:40:34.515
10              0:45:00.000     0:05:00.000     23 896 kbps     30 421 kbps     00:45:56.003    26 331 kbps     00:49:09.363    25 667 kbps     00:49:49.611    124 580 bytes   685 671 bytes   00:48:27.821
11              0:50:00.000     0:05:00.000     23 298 kbps     30 410 kbps     00:54:35.981    25 879 kbps     00:50:00.956    24 691 kbps     00:53:54.147    121 480 bytes   930 727 bytes   00:54:17.295
12              0:55:00.000     0:05:00.000     23 892 kbps     29 484 kbps     00:55:51.931    26 483 kbps     00:56:27.884    26 135 kbps     00:56:24.380    124 558 bytes   903 908 bytes   00:55:13.893
13              1:00:00.000     0:05:00.000     23 703 kbps     32 168 kbps     01:04:35.788    26 590 kbps     01:02:23.406    25 806 kbps     01:02:21.070    123 574 bytes   855 065 bytes   01:03:27.720
14              1:05:00.000     0:05:00.000     23 091 kbps     38 126 kbps     01:05:45.024    26 319 kbps     01:05:04.025    25 955 kbps     01:05:04.025    120 385 bytes   617 798 bytes   01:08:33.901
15              1:10:00.000     0:05:00.000     23 540 kbps     30 052 kbps     01:11:29.118    26 266 kbps     01:12:17.124    25 577 kbps     01:12:12.244    122 726 bytes   667 243 bytes   01:11:29.159
16              1:15:00.000     0:05:00.000     23 479 kbps     29 023 kbps     01:16:52.232    26 457 kbps     01:16:50.522    25 463 kbps     01:15:19.681    122 425 bytes   915 502 bytes   01:18:43.260
17              1:20:00.000     0:05:00.000     17 322 kbps     30 123 kbps     01:24:07.959    26 456 kbps     01:22:05.337    26 104 kbps     01:22:00.415    90 304 bytes    932 489 bytes   01:22:11.176
18              1:25:00.000     0:05:00.000     15 885 kbps     24 560 kbps     01:25:02.597    22 115 kbps     01:26:49.203    20 133 kbps     01:26:46.034    82 812 bytes    396 920 bytes   01:26:51.998
19              1:30:00.000     0:02:23.359     17 783 kbps     27 026 kbps     01:31:33.321    25 358 kbps     01:31:19.307    24 049 kbps     01:31:17.263    92 798 bytes    514 353 bytes   01:31:27.273
STREAM DIAGNOSTICS:
File            PID             Type            Codec           Language                Seconds                 Bitrate                 Bytes           Packets
----            ---             ----            -----           --------                --------------          --------------          -------------   -----
00000.M2TS      4113 (0x1011)   0x1B            AVC                                     5543,204                22 562                  15 633 280 191  85 041 482
00000.M2TS      4352 (0x1100)   0x83            TrueHD          eng (English)           5543,204                3 891                   2 695 873 198   18 497 392
00000.M2TS      4353 (0x1101)   0x81            AC3             eng (English)           5543,204                448                     310 428 160     1 732 300
00000.M2TS      4354 (0x1102)   0x81            AC3             rus (Russian)           5543,204                640                     443 471 360     2 598 465
00000.M2TS      4355 (0x1103)   0x81            AC3             rus (Russian)           5543,204                448                     310 403 072     1 732 160
00000.M2TS      4356 (0x1104)   0x81            AC3             rus (Russian)           5543,204                448                     310 367 232     1 731 960
00000.M2TS      4357 (0x1105)   0x81            AC3             rus (Russian)           5543,204                448                     310 360 064     1 731 920
00000.M2TS      4358 (0x1106)   0x81            AC3             rus (Russian)           5543,204                448                     310 356 480     1 731 900
00000.M2TS      4608 (0x1200)   0x90            PGS             deu (German)            5543,204                0                       26 822          152
00000.M2TS      4609 (0x1201)   0x90            PGS             kor (Korean)            5543,204                0                       4 997           34
00000.M2TS      4610 (0x1202)   0x90            PGS             zho (Chinese)           5543,204                0                       9 274           57
00000.M2TS      4611 (0x1203)   0x90            PGS             rus (Russian)           5543,204                0                       6 346           41
00000.M2TS      4612 (0x1204)   0x90            PGS             tur (Turkish)           5543,204                0                       5 738           38
00000.M2TS      4613 (0x1205)   0x90            PGS             eng (English)           5543,204                28                      19 333 613      113 427
QUICK SUMMARY:
Disc Title: Шрек 2 (BDRemux MY)Disc Size: 22 088 927 904 bytesProtection: AACSBD-Java: NoPlaylist: 00000.MPLSSize: 22 088 847 360 bytesLength: 1:32:23Total Bitrate: 31,88 MbpsVideo: MPEG-4 AVC Video / 22562 kbps / 1080p / 23,976 fps / 16:9 / High Profile 4.1Audio: English / Dolby TrueHD Audio / 7.1 / 48 kHz / 3251 kbps / 16-bit (AC3 Embedded: 5.1 / 48 kHz / 640 kbps)Audio: English / Dolby Digital Audio / 5.1 / 48 kHz / 448 kbpsAudio: Russian / Dolby Digital Audio / 5.1 / 48 kHz / 640 kbps / DN -4dBAudio: Russian / Dolby Digital Audio / 5.1 / 48 kHz / 448 kbpsAudio: Russian / Dolby Digital Audio / 5.1 / 48 kHz / 448 kbps / DN -3dBAudio: Russian / Dolby Digital Audio / 5.1 / 48 kHz / 448 kbpsAudio: Russian / Dolby Digital Audio / 5.1 / 48 kHz / 448 kbpsSubtitle: English / 27,902 kbpsSubtitle: Chinese / 0,013 kbpsSubtitle: German / 0,039 kbpsSubtitle: Korean / 0,007 kbpsSubtitle: Russian / 0,009 kbpsSubtitle: Turkish / 0,008 kbps

Скриншоты

Скриншот с названием мультфильма:

Скриншоты:
-Шрек 3 / Шрек Третий / Shrek the Third- Страна: США
Жанр: комедия, приключения, семейный, мультфильм
Продолжительность: 1:32:46
Год выпуска: 2007
Перевод: Профессиональный (дублированный)
Русские субтитры: есть-Режиссёр: Крис Миллер, Раман Хуи / Chris Miller, Raman Hui
Роли озвучивали: Майк Майерс, Эдди Мёрфи, Кэмерон Диаз, Антонио Бандерас, Джули Эндрюс, Джон Клиз, Руперт Эверет, Эрик Айдл, Джастин Тимберлэйк, Сьюзан Блэйксли-Описание: Королем может быть не каждый — особенно если вы не очень симпатичный великан. Когда Шрэк женился на принцессе Фионе, он меньше всего на свете хотел управлять Далекой-Далекой страной. Такой он невластолюбивый. Однако отец Фионы, король Гарольд, внезапно умирает, и корону должен унаследовать именно Шрэк. Как-никак, он все-таки муж наследницы.
Однако Шрэк наотрез отказывается от бремени власти, и решает отправиться вместе со своими старыми друзьями Ослом и Котом в сапогах на поиски кандидата на трон. Если Шрэк не найдет себе подходящей замены, ему придется управлять сказочной страной самому… и это надолго. Похоже, что король Артур — тот, кто им нужен.
Однако в отсутствие великана его старый враг принц по имени Чарминг замышляет всякие пакости, для чего и возвращается в сказочную страну. Шрэку придется очень постараться, чтобы спасти страну от происков врагов и от возможного переворота.--Качество: BDRemux
Формат: BDMV
Видео: VC-1 Video / 20643 kbps / 1080p / 23,976 fps / 16:9 / Advanced Profile 3
Аудио 1: English (TrueHD 5.1, 3349 kb/s)
Аудио 2: English: 48 kHz, AC3 Dolby Digital, 3/2 (L,C,R,l,r) + LFE ch, ~448 kbps
Аудио 3: Russian (5.1 / 48 kHz / 640 kbps) |Дубляж|
Аудио 4: Ukrainian (Dolby Digital 5.1, 640 kb/s) |Украинский|
Аудио 5: Russian: 48 kHz, AC3 Dolby Digital, 3/2 (L,C,R,l,r) + LFE ch, ~384 kbps |AVO (Гаврилов)|
Аудио 6: Russian: 48 kHz, AC3 Dolby Digital, 3/2 (L,C,R,l,r) + LFE ch, ~448 kbps |AVO (Гланц и &)|
Аудио 7: Russian: 48 kHz, AC3 Dolby Digital, 3/2 (L,C,R,l,r) + LFE ch, ~448 kbps |AVO (Королев)|
Субтитры: Russian, English, Arabic, Croatian, Czech, Icelandic, Ukrainian

BDInfo

Disc Title: Шрек 3 (BDRemux MY)Disc Size: 21 161 854 664 bytesProtection: AACSBD-Java: NoBDInfo: 0.5.6
Notes:
BDINFO HOME: Cinema Squid http://www.cinemasquid.com/blu-ray/tools/bdinfo
INCLUDES FORUMS REPORT FOR: AVS Forum Blu-ray Audio and Video Specifications Thread http://www.avsforum.com/avs-vb/showthread.php?t=1155731
********************PLAYLIST: 00000.MPLS********************
Total   Video
Title                                                           Codec   Length  Movie Size      Disc Size       Bitrate Bitrate Main Audio Track                          Secondary Audio Track
-----                                                           ------  ------- --------------  --------------  ------- ------- ------------------                        ---------------------
00000.MPLS                                                      VC-1    1:32:46 21 161 773 056  21 161 854 664  30,42   20,64   Dolby TrueHD 5.1 3349Kbps (48kHz/24-bit)  DD AC3 5.1 448Kbps
DISC INFO:
Disc Title:     Шрек 3 (BDRemux MY)
Disc Size:      21 161 854 664 bytes
Protection:     AACS
BD-Java:        No
BDInfo:         0.5.6
PLAYLIST REPORT:
Name:                   00000.MPLS
Length:                 1:32:46 (h:m:s)
Size:                   21 161 773 056 bytes
Total Bitrate:          30,42 Mbps
VIDEO:
Codec                   Bitrate             Description
-----                   -------             -----------
VC-1 Video              20643 kbps          1080p / 23,976 fps / 16:9 / Advanced Profile 3
AUDIO:
Codec                           Language        Bitrate         Description
-----                           --------        -------         -----------
Dolby TrueHD Audio              English         3349 kbps       5.1 / 48 kHz / 3349 kbps / 24-bit (AC3 Embedded: 5.1 / 48 kHz / 640 kbps)
Dolby Digital Audio             English         448 kbps        5.1 / 48 kHz / 448 kbps
Dolby Digital Audio             Russian         640 kbps        5.1 / 48 kHz / 640 kbps
Dolby Digital Audio             Russian         384 kbps        5.1 / 48 kHz / 384 kbps
Dolby Digital Audio             Russian         448 kbps        5.1 / 48 kHz / 448 kbps / DN -1dB
Dolby Digital Audio             Russian         448 kbps        5.1 / 48 kHz / 448 kbps / DN -4dB
Dolby Digital Audio             Ukrainian       640 kbps        5.1 / 48 kHz / 640 kbps
SUBTITLES:
Codec                           Language        Bitrate         Description
-----                           --------        -------         -----------
Presentation Graphics           English         24,044 kbps
Presentation Graphics           English         26,660 kbps
Presentation Graphics           English         33,314 kbps
Presentation Graphics           Arabic          15,384 kbps
Presentation Graphics           Croatian        25,258 kbps
Presentation Graphics           Czech           29,078 kbps
Presentation Graphics           Icelandic       30,030 kbps
Presentation Graphics           Russian         31,663 kbps
Presentation Graphics           Ukrainian       30,390 kbps
FILES:
Name            Time In         Length          Size            Total Bitrate
----            -------         ------          ----            -------------
00000.M2TS      0:00:00.000     1:32:46.080     21 161 773 056  30 415
CHAPTERS:
Number          Time In         Length          Avg Video Rate  Max 1-Sec Rate  Max 1-Sec Time  Max 5-Sec Rate  Max 5-Sec Time  Max 10Sec Rate  Max 10Sec Time  Avg Frame Size  Max Frame Size  Max Frame Time
------          -------         ------          --------------  --------------  --------------  --------------  --------------  --------------  --------------  --------------  --------------  --------------
1               0:00:00.000     0:05:00.000     18 915 kbps     41 569 kbps     00:03:50.688    32 339 kbps     00:03:33.379    27 750 kbps     00:00:54.846    98 596 bytes    683 243 bytes   00:04:58.506
2               0:05:00.000     0:05:00.000     21 189 kbps     46 671 kbps     00:05:25.742    35 933 kbps     00:05:21.696    30 606 kbps     00:09:02.875    110 467 bytes   740 060 bytes   00:06:51.994
3               0:10:00.000     0:05:00.000     18 180 kbps     36 697 kbps     00:13:43.697    31 750 kbps     00:11:26.352    26 735 kbps     00:13:07.995    94 780 bytes    705 398 bytes   00:13:15.503
4               0:15:00.000     0:05:00.000     18 910 kbps     33 953 kbps     00:18:28.565    27 504 kbps     00:17:35.220    26 065 kbps     00:18:59.388    98 600 bytes    834 672 bytes   00:18:02.915
5               0:20:00.000     0:05:00.000     21 399 kbps     39 851 kbps     00:20:40.572    31 291 kbps     00:20:39.279    28 657 kbps     00:22:54.998    111 560 bytes   849 833 bytes   00:21:15.482
6               0:25:00.000     0:05:00.000     23 372 kbps     46 540 kbps     00:25:51.216    35 743 kbps     00:25:49.172    30 562 kbps     00:25:47.420    121 865 bytes   1 050 878 bytes 00:28:15.402
7               0:30:00.000     0:05:00.000     22 351 kbps     34 943 kbps     00:34:21.517    31 112 kbps     00:34:21.517    29 909 kbps     00:34:19.348    116 526 bytes   838 623 bytes   00:31:20.461
8               0:35:00.000     0:05:00.000     21 964 kbps     37 273 kbps     00:35:08.231    28 397 kbps     00:35:38.469    26 906 kbps     00:35:11.359    114 508 bytes   821 340 bytes   00:36:53.920
9               0:40:00.000     0:05:00.000     24 090 kbps     38 095 kbps     00:43:15.884    28 666 kbps     00:42:43.352    28 431 kbps     00:42:43.727    125 591 bytes   1 018 160 bytes 00:43:32.651
10              0:45:00.000     0:05:00.000     18 500 kbps     44 022 kbps     00:46:32.414    30 952 kbps     00:46:31.163    24 467 kbps     00:46:31.163    96 449 bytes    731 470 bytes   00:45:47.661
11              0:50:00.000     0:05:00.000     22 942 kbps     43 796 kbps     00:50:41.121    29 542 kbps     00:52:19.219    27 971 kbps     00:53:06.099    119 623 bytes   958 655 bytes   00:54:28.223
12              0:55:00.000     0:05:00.000     24 140 kbps     44 590 kbps     00:57:55.013    33 709 kbps     00:59:19.138    29 686 kbps     00:57:46.504    125 851 bytes   916 550 bytes   00:58:14.782
13              1:00:00.000     0:05:00.000     20 167 kbps     37 844 kbps     01:02:28.035    30 100 kbps     01:02:24.365    26 750 kbps     01:00:00.305    105 139 bytes   787 019 bytes   01:00:04.517
14              1:05:00.000     0:05:00.000     22 279 kbps     44 192 kbps     01:05:50.196    34 262 kbps     01:08:20.763    31 059 kbps     01:08:14.673    116 150 bytes   930 379 bytes   01:08:01.660
15              1:10:00.000     0:05:00.000     20 327 kbps     41 235 kbps     01:11:56.979    27 825 kbps     01:10:21.467    26 018 kbps     01:13:03.045    105 975 bytes   826 595 bytes   01:10:23.218
16              1:15:00.000     0:05:00.000     22 117 kbps     41 476 kbps     01:17:43.116    33 756 kbps     01:17:39.112    29 107 kbps     01:17:34.066    115 323 bytes   755 239 bytes   01:17:31.063
17              1:20:00.000     0:05:00.000     15 326 kbps     33 996 kbps     01:20:09.638    29 068 kbps     01:20:05.800    25 466 kbps     01:21:24.629    79 900 bytes    782 569 bytes   01:20:40.794
18              1:25:00.000     0:05:00.000     15 194 kbps     23 065 kbps     01:26:10.081    21 752 kbps     01:26:08.204    21 207 kbps     01:28:58.750    79 212 bytes    590 341 bytes   01:26:10.582
19              1:30:00.000     0:02:46.079     21 025 kbps     39 953 kbps     01:32:35.091    29 625 kbps     01:31:16.137    28 945 kbps     01:31:11.299    109 643 bytes   717 122 bytes   01:31:17.889
STREAM DIAGNOSTICS:
File            PID             Type            Codec           Language                Seconds                 Bitrate                 Bytes           Packets
----            ---             ----            -----           --------                --------------          --------------          -------------   -----
00000.M2TS      4113 (0x1011)   0xEA            VC-1                                    5565,935                20 644                  14 362 604 261  78 139 000
00000.M2TS      4352 (0x1100)   0x83            TrueHD          eng (English)           5565,935                3 990                   2 775 696 828   18 942 618
00000.M2TS      4353 (0x1101)   0x81            AC3             eng (English)           5565,935                448                     311 530 240     1 738 450
00000.M2TS      4354 (0x1102)   0x81            AC3             rus (Russian)           5565,935                640                     445 288 960     2 609 115
00000.M2TS      4355 (0x1103)   0x81            AC3             ukr (Ukrainian)         5565,935                640                     445 288 960     2 609 115
00000.M2TS      4356 (0x1104)   0x81            AC3             rus (Russian)           5565,935                384                     267 016 704     1 564 551
00000.M2TS      4357 (0x1105)   0x81            AC3             rus (Russian)           5565,935                448                     311 512 320     1 738 350
00000.M2TS      4358 (0x1106)   0x81            AC3             rus (Russian)           5565,935                448                     311 510 528     1 738 340
00000.M2TS      4608 (0x1200)   0x90            PGS             ara (Arabic)            5565,935                15                      10 703 685      65 732
00000.M2TS      4609 (0x1201)   0x90            PGS             ces (Czech)             5565,935                29                      20 231 564      117 168
00000.M2TS      4610 (0x1202)   0x90            PGS             eng (English)           5565,935                33                      23 178 817      133 434
00000.M2TS      4611 (0x1203)   0x90            PGS             hrv (Croatian)          5565,935                25                      17 573 707      102 629
00000.M2TS      4612 (0x1204)   0x90            PGS             isl (Icelandic)         5565,935                30                      20 893 911      120 952
00000.M2TS      4613 (0x1205)   0x90            PGS             rus (Russian)           5565,935                32                      22 030 212      127 308
00000.M2TS      4614 (0x1206)   0x90            PGS             ukr (Ukrainian)         5565,935                30                      21 144 551      122 394
00000.M2TS      4615 (0x1207)   0x90            PGS             eng (English)           5565,935                27                      18 549 144      114 807
00000.M2TS      4616 (0x1208)   0x90            PGS             eng (English)           5565,935                24                      16 728 698      98 312
QUICK SUMMARY:
Disc Title: Шрек 3 (BDRemux MY)Disc Size: 21 161 854 664 bytesProtection: AACSBD-Java: NoPlaylist: 00000.MPLSSize: 21 161 773 056 bytesLength: 1:32:46Total Bitrate: 30,42 MbpsVideo: VC-1 Video / 20643 kbps / 1080p / 23,976 fps / 16:9 / Advanced Profile 3Audio: English / Dolby TrueHD Audio / 5.1 / 48 kHz / 3349 kbps / 24-bit (AC3 Embedded: 5.1 / 48 kHz / 640 kbps)Audio: English / Dolby Digital Audio / 5.1 / 48 kHz / 448 kbpsAudio: Russian / Dolby Digital Audio / 5.1 / 48 kHz / 640 kbpsAudio: Russian / Dolby Digital Audio / 5.1 / 48 kHz / 384 kbpsAudio: Russian / Dolby Digital Audio / 5.1 / 48 kHz / 448 kbps / DN -1dBAudio: Russian / Dolby Digital Audio / 5.1 / 48 kHz / 448 kbps / DN -4dBAudio: Ukrainian / Dolby Digital Audio / 5.1 / 48 kHz / 640 kbpsSubtitle: English / 24,044 kbpsSubtitle: English / 26,660 kbpsSubtitle: English / 33,314 kbpsSubtitle: Arabic / 15,384 kbpsSubtitle: Croatian / 25,258 kbpsSubtitle: Czech / 29,078 kbpsSubtitle: Icelandic / 30,030 kbpsSubtitle: Russian / 31,663 kbpsSubtitle: Ukrainian / 30,390 kbps

Скриншоты

Скриншот с названием мультфильма:

Скриншоты:
-Шрек навсегда / Шрек 4 / Shrek Forever After
Страна: США
Жанр: комедия, приключения, семейный, мультфильм
Продолжительность: 01:33:10
Год выпуска: 2010
Перевод: Профессиональный (дублированный)
Русские субтитры: есть-Режиссёр: Майк Митчел / Mike Mitchell
Роли озвучивали: Майк Майерс, Эдди Мёрфи, Кэмерон Диаз, Антонио Бандерас, Джули Эндрюс, Джон Хэмм, Джон Клиз, Крэйг Робинсон, Уолт Дорн, Джейн Линч-Описание: Чем бы еще заняться огру, который уже сразился со злым драконом, спас прекрасную принцессу и уберег от беды королевство родственников по линии жены? Что ж, если вы Шрек, то, сами того не заметив, вы вдруг сядете дома и станете наслаждаться покоем в кругу семьи. Вместо того чтобы как раньше пугать деревенских жителей, теперь Шрек, хоть и с неохотой, но соглашается оставлять автографы на их вилах. А куда же подевался знаменитый рык этого огра?
Под грузом воспоминаний о днях, когда он чувствовал себя «настоящим огром», Шрэк поддается на уговоры сладкоголосого Румпельштильцхена и заключает с ним договор. Сразу после этого Шрек оказывается в альтернативной реальности Тридевятого королевства, где все поставлено с ног на голову: на огров здесь охотятся, Румпельштильцхен восседает на троне, а Шрек и Фиона даже не знакомы. И теперь только сам Шрэк может исправить все, что он натворил, чтобы спасти друзей, восстановить привычный ему порядок вещей и вернуть себе свою единственную Истинную Любовь.-Качество: BDRemux
Формат: BDMV
Видео: 1920x1080 at 23.976 fps, MPEG-4 AVC, ~22021 kbps avg
Аудио: (ENG) Dolby TrueHD Audio 7.1 48 kHz 3079 kbps 16-bit
Аудио 2: (RUS) DD 5.1 48 kHz 640 kbps DN -4dB
Аудио 3: (UKR) DD 5.1 48 kHz 640 kbps DN -4dB
Субтитры: Английский, Эстонский, Латышский, Литовский, Русский, Украинский

BDInfo

Disc Title: Shrek.4.After.BDRemuxDisc Size: 27 335 077 032 bytesProtection: AACSBD-Java: NoBDInfo: 0.5.6
Notes:
BDINFO HOME: Cinema Squid http://www.cinemasquid.com/blu-ray/tools/bdinfo
INCLUDES FORUMS REPORT FOR: AVS Forum Blu-ray Audio and Video Specifications Thread http://www.avsforum.com/avs-vb/showthread.php?t=1155731
********************PLAYLIST: 00000.MPLS********************
Total   Video
Title                                                           Codec   Length  Movie Size      Disc Size       Bitrate Bitrate Main Audio Track                          Secondary Audio Track
-----                                                           ------  ------- --------------  --------------  ------- ------- ------------------                        ---------------------
00000.MPLS                                                      AVC     1:33:10 27 334 993 920  27 335 077 032  39,12   31,06   Dolby TrueHD 7.1 3079Kbps (48kHz/16-bit)
DISC INFO:
Disc Title:     Shrek.4.After.BDRemux
Disc Size:      27 335 077 032 bytes
Protection:     AACS
BD-Java:        No
BDInfo:         0.5.6
PLAYLIST REPORT:
Name:                   00000.MPLS
Length:                 1:33:10 (h:m:s)
Size:                   27 334 993 920 bytes
Total Bitrate:          39,12 Mbps
VIDEO:
Codec                   Bitrate             Description
-----                   -------             -----------
MPEG-4 AVC Video        31060 kbps          1080p / 23,976 fps / 16:9 / High Profile 4.1
AUDIO:
Codec                           Language        Bitrate         Description
-----                           --------        -------         -----------
Dolby TrueHD Audio              English         3079 kbps       7.1 / 48 kHz / 3079 kbps / 16-bit (AC3 Embedded: 5.1 / 48 kHz / 640 kbps)
Dolby Digital Audio             Russian         640 kbps        5.1 / 48 kHz / 640 kbps / DN -4dB
Dolby Digital Audio             Ukrainian       640 kbps        5.1 / 48 kHz / 640 kbps / DN -4dB
SUBTITLES:
Codec                           Language        Bitrate         Description
-----                           --------        -------         -----------
Presentation Graphics           English         43,946 kbps
Presentation Graphics           Estonian        42,449 kbps
Presentation Graphics           Latvian         43,065 kbps
Presentation Graphics           Lithuanian      40,511 kbps
Presentation Graphics           Russian         43,662 kbps
Presentation Graphics           Ukrainian       42,429 kbps
FILES:
Name            Time In         Length          Size            Total Bitrate
----            -------         ------          ----            -------------
00000.M2TS      0:00:00.000     1:33:10.432     27 334 993 920  39 117
CHAPTERS:
Number          Time In         Length          Avg Video Rate  Max 1-Sec Rate  Max 1-Sec Time  Max 5-Sec Rate  Max 5-Sec Time  Max 10Sec Rate  Max 10Sec Time  Avg Frame Size  Max Frame Size  Max Frame Time
------          -------         ------          --------------  --------------  --------------  --------------  --------------  --------------  --------------  --------------  --------------  --------------
1               0:00:00.000     0:05:00.000     30 811 kbps     42 499 kbps     00:04:53.126    36 240 kbps     00:01:38.598    36 003 kbps     00:00:22.689    160 605 bytes   640 049 bytes   00:04:54.585
2               0:05:00.000     0:05:00.000     31 714 kbps     40 481 kbps     00:08:58.162    36 465 kbps     00:05:24.115    36 083 kbps     00:09:44.208    165 338 bytes   641 083 bytes   00:06:58.709
3               0:10:00.000     0:05:00.000     30 656 kbps     38 297 kbps     00:10:22.121    36 273 kbps     00:14:50.889    35 838 kbps     00:14:50.014    159 823 bytes   639 545 bytes   00:14:36.875
4               0:15:00.000     0:05:00.000     30 820 kbps     38 988 kbps     00:19:42.389    36 107 kbps     00:17:45.981    35 625 kbps     00:19:33.297    160 677 bytes   630 342 bytes   00:15:03.569
5               0:20:00.000     0:05:00.000     32 070 kbps     39 852 kbps     00:20:57.297    36 371 kbps     00:22:16.960    35 954 kbps     00:22:11.913    167 193 bytes   640 984 bytes   00:23:16.520
6               0:25:00.000     0:05:00.000     31 853 kbps     38 542 kbps     00:25:24.981    36 492 kbps     00:25:20.894    35 947 kbps     00:25:17.015    166 088 bytes   639 320 bytes   00:25:25.815
7               0:30:00.000     0:05:00.000     31 084 kbps     39 241 kbps     00:34:45.333    36 100 kbps     00:33:38.558    35 521 kbps     00:34:49.462    162 054 bytes   639 975 bytes   00:34:44.665
8               0:35:00.000     0:05:00.000     30 390 kbps     39 402 kbps     00:36:29.395    36 508 kbps     00:37:27.620    35 542 kbps     00:36:30.104    158 435 bytes   641 002 bytes   00:35:05.019
9               0:40:00.000     0:05:00.000     31 498 kbps     40 887 kbps     00:41:00.457    36 240 kbps     00:41:11.343    35 797 kbps     00:41:08.215    164 213 bytes   639 963 bytes   00:40:33.472
10              0:45:00.000     0:05:00.000     31 039 kbps     37 882 kbps     00:49:29.633    35 519 kbps     00:49:28.632    34 596 kbps     00:47:42.609    161 819 bytes   575 690 bytes   00:46:56.146
11              0:50:00.000     0:05:00.000     30 912 kbps     37 950 kbps     00:54:00.236    36 079 kbps     00:53:58.193    35 083 kbps     00:53:54.564    161 182 bytes   504 487 bytes   00:51:53.735
12              0:55:00.000     0:05:00.000     31 064 kbps     38 366 kbps     00:56:00.523    35 969 kbps     00:59:03.206    35 410 kbps     00:58:59.202    161 951 bytes   525 742 bytes   00:55:02.716
13              1:00:00.000     0:05:00.000     30 426 kbps     38 534 kbps     01:04:32.076    35 984 kbps     01:02:30.663    35 420 kbps     01:02:02.969    158 625 bytes   516 063 bytes   01:02:24.657
14              1:05:00.000     0:05:00.000     29 351 kbps     38 113 kbps     01:06:23.854    36 255 kbps     01:06:39.328    35 980 kbps     01:07:18.743    153 019 bytes   589 954 bytes   01:06:26.857
15              1:10:00.000     0:05:00.000     30 775 kbps     38 183 kbps     01:13:47.297    35 931 kbps     01:12:52.743    35 174 kbps     01:12:21.545    160 444 bytes   511 039 bytes   01:12:41.023
16              1:15:00.000     0:05:00.000     31 742 kbps     38 344 kbps     01:19:54.122    35 951 kbps     01:18:53.186    35 362 kbps     01:18:50.267    165 507 bytes   462 696 bytes   01:16:56.820
17              1:20:00.000     0:05:00.000     30 422 kbps     38 513 kbps     01:22:24.314    36 341 kbps     01:22:33.657    35 923 kbps     01:22:35.450    158 601 bytes   627 548 bytes   01:22:27.233
18              1:25:00.000     0:05:00.000     30 719 kbps     37 697 kbps     01:25:46.182    36 154 kbps     01:25:45.306    35 836 kbps     01:29:45.755    160 148 bytes   641 076 bytes   01:26:34.230
19              1:30:00.000     0:03:10.431     33 780 kbps     36 703 kbps     01:31:41.996    35 970 kbps     01:32:01.057    35 889 kbps     01:32:01.057    176 144 bytes   640 593 bytes   01:32:05.561
STREAM DIAGNOSTICS:
File            PID             Type            Codec           Language                Seconds                 Bitrate                 Bytes           Packets
----            ---             ----            -----           --------                --------------          --------------          -------------   -----
00000.M2TS      4113 (0x1011)   0x1B            AVC                                     5590,293                31 060                  21 704 634 961  118 038 077
00000.M2TS      4352 (0x1100)   0x83            TrueHD          eng (English)           5590,293                3 719                   2 598 831 682   17 958 699
00000.M2TS      4353 (0x1101)   0x81            AC3             rus (Russian)           5590,293                640                     447 237 120     2 620 530
00000.M2TS      4354 (0x1102)   0x81            AC3             ukr (Ukrainian)         5590,293                640                     447 237 120     2 620 530
00000.M2TS      4608 (0x1200)   0x90            PGS             eng (English)           5590,293                44                      30 709 798      173 996
00000.M2TS      4609 (0x1201)   0x90            PGS             est (Estonian)          5590,293                42                      29 663 518      168 152
00000.M2TS      4610 (0x1202)   0x90            PGS             lit (Lithuanian)        5590,293                41                      28 309 402      161 096
00000.M2TS      4611 (0x1203)   0x90            PGS             lav (Latvian)           5590,293                43                      30 093 984      170 757
00000.M2TS      4612 (0x1204)   0x90            PGS             rus (Russian)           5590,293                44                      30 511 639      173 154
00000.M2TS      4613 (0x1205)   0x90            PGS             ukr (Ukrainian)         5590,293                42                      29 649 954      168 296
QUICK SUMMARY:
Disc Title: Shrek.4.After.BDRemuxDisc Size: 27 335 077 032 bytesProtection: AACSBD-Java: NoPlaylist: 00000.MPLSSize: 27 334 993 920 bytesLength: 1:33:10Total Bitrate: 39,12 MbpsVideo: MPEG-4 AVC Video / 31060 kbps / 1080p / 23,976 fps / 16:9 / High Profile 4.1Audio: English / Dolby TrueHD Audio / 7.1 / 48 kHz / 3079 kbps / 16-bit (AC3 Embedded: 5.1 / 48 kHz / 640 kbps)Audio: Russian / Dolby Digital Audio / 5.1 / 48 kHz / 640 kbps / DN -4dBAudio: Ukrainian / Dolby Digital Audio / 5.1 / 48 kHz / 640 kbps / DN -4dBSubtitle: English / 43,946 kbpsSubtitle: Estonian / 42,449 kbpsSubtitle: Latvian / 43,065 kbpsSubtitle: Lithuanian / 40,511 kbpsSubtitle: Russian / 43,662 kbpsSubtitle: Ukrainian / 42,429 kbps

Скриншоты

Скриншот с названием мультфильма:

Скриншоты:

[Цитировать]



Показать сообщения:    

Текущее время: 07-Дек 17:34

Часовой пояс: UTC + 3


Вы не можете начинать темы
Вы не можете отвечать на сообщения
Вы не можете редактировать свои сообщения
Вы не можете удалять свои сообщения
Вы не можете голосовать в опросах
Вы не можете прикреплять файлы к сообщениям
Вы не можете скачивать файлы

!ВНИМАНИЕ!
Сайт не предоставляет электронные версии произведений, а занимается лишь коллекционированием и каталогизацией ссылок, присылаемых и публикуемых на форуме нашими читателями. Если вы являетесь правообладателем какого-либо представленного материала и не желаете, чтобы ссылка на него находилась в нашем каталоге, свяжитесь с нами, и мы незамедлительно удалим ее. Файлы для обмена на трекере предоставлены пользователями сайта, и администрация не несет ответственности за их содержание. Просьба не заливать файлы, защищенные авторскими правами, а также файлы нелегального содержания!