[ Сегодня идет свободное скачивание без начисления Download ]


Статистика раздачи
Нет
 
   
 
Top  
 
 

Терминатор

-Терминатор / Terminator- Страна: США
Студия: MGM, Orion pictures
Жанр: Фантастика, Боевик, Триллер
Год выпуска: 1984
Продолжительность: 01:47:13
Режиссер: Джеймс Кэмерон / James Cameron
В ролях: Арнольд Шварценеггер, Майкл Бьен, Линда Хэмилтон, Пол Уинфилд, Лэнс Хенриксен, Эрл Боэн, Рик Россович, Дик Миллер, Франко Коламбу, Билл Пэкстон, Энтони Трухильо, Джеймс Ролстон
Описание: В 2029 году, в разгар войны между людьми и роботами, машины-убийцы с помощью суперкомпьютера «Скайнет» отправили в прошлое, в 1984 год, киборга-терминатора, который должен был убить женщину по имени Сара Коннор, чтобы не появился на свет ее сын, возглавивший в будущем восстание против роботов. Вслед за киборгом в 1984 год отправился и Кайл Рис, задача которого — остановить терминатора любой ценой!-Качество: BD-Remux | Формат: MKV | Видео кодек: MPEG-2 | Аудио кодек: DTS-HD MA, DTS, AC3 |
Видео: 1920x1080 at 23.976 fps, MPEG-2, ~23.3 Mbps avg
Аудио#1: Russian: 48 kHz/16-bit, DTS-HD MA 5.1, ~2248.00 kbps avg (DTS Core: 5.1 / 48 kHz / 1509 kbps / 16-bit) |Многоголосый закадровый, Киномания, новый перевод|
Аудио#2: Russian: 48 kHz/16-bit, DTS-HD MA 5.1, ~2253.00 kbps avg (DTS Core: 5.1 / 48 kHz / 1509 kbps / 16-bit) |Многоголосый закадровый, Карусель|
Аудио#3: Russian: 48 kHz/16-bit, DTS-HD MA 5.1, ~2253.00 kbps avg (DTS Core: 5.1 / 48 kHz / 1509 kbps / 16-bit) |Многоголосый закадровый, Позитив Мультимедиа|
Аудио#4: Russian: 48 kHz/16-bit, DTS-HD MA 5.1, ~2246.00 kbps avg (DTS Core: 5.1 / 48 kHz / 1509 kbps / 16-bit) |Одноголосый закадровый, Д. Пучков (Goblin)|
Аудио#5: Russian: 48 kHz/16-bit, DTS-HD MA 5.1, ~2258.00 kbps avg (DTS Core: 5.1 / 48 kHz / 1509 kbps / 16-bit) |Одноголосый закадровый, Ю.Сербин|
Аудио#6: Russian: 48 kHz/16-bit, DTS-HD MA 5.1, ~2247.00 kbps avg (DTS Core: 5.1 / 48 kHz / 1509 kbps / 16-bit) |Одноголосый закадровый, А.Гаврилов, новый перевод|
Аудио#7: Russian: 48 kHz/16-bit, DTS-HD MA 5.1, ~2246.00 kbps avg (DTS Core: 5.1 / 48 kHz / 1509 kbps / 16-bit) |Одноголосый закадровый, В.Горчаков|
Аудио#8: English: 48 kHz/16-bit, DTS-HD MA 5.1, ~2243.00 kbps avg (DTS Core: 5.1 / 48 kHz / 1509 kbps / 16-bit)
Аудио#9: Russian: 48 kHz, DTS, 3/2 (L,C,R,l,r) + LFE ch, ~1536.00 kbps avg |Многоголосый закадровый, ОРТ Селена Интернешнл| --> by suricat
Аудио#10: Russian: 48 kHz, DTS, 3/2 (L,C,R,l,r) + LFE ch, ~1536.00 kbps avg |Многоголосый закадровый, Первый Канал| --> by suricat
Аудио#11: Russian: 48 kHz, AC3, 3/2 (L,C,R,l,r) + LFE ch, ~448.00 kbps avg |Многоголосый закадровый, Гемини Фильм|
Аудио#12: Russian: 48 kHz, AC3, 3/2 (L,C,R,l,r) + LFE ch, ~448.00 kbps avg |Одноголосый закадровый, Держиморда|
Аудио#13: Russian: 48 kHz, AC3, 2/0 (L,R) ch, ~192.00 kbps avg |Одноголосый закадровый, Л.Володарский|
Аудио#14: Ukrainian: 48 kHz, AC3, 2/0 (L,R) ch, ~192.00 kbps avg |Многоголосый закадровый, 1+1|
Субтитры: Russian (Full), Russian (А.Гаврилов), English, English (SDH)

MInfo

General
Unique ID : 188604596148444737270522603311012144739 (0x8DE3EC8724E2EC01BF09B120196A6663)
Complete name : E:\Blu-ray\Terminator\Terminator.1984.BDRemux.1080p.mpeg2.12xRus.Ukr.Eng.mkv
Format : Matroska
File size : 30.6 GiB
Duration : 1h 47mn
Overall bit rate : 40.9 Mbps
Encoded date : UTC 2011-05-04 18:16:02
Writing application : mkvmerge v4.7.0 ('Just Like You Imagined') сборка от Apr 21 2011 01:13:14
Writing library : libebml v1.2.0 + libmatroska v1.1.0
Video
ID : 1
Format : MPEG Video
Format version : Version 2
Format profile : Main@High
Format settings, BVOP : No
Format settings, Matrix : Default
Codec ID : V_MPEG2
Codec ID/Info : MPEG 1 or 2 Video
Duration : 1h 47mn
Bit rate mode : Variable
Bit rate : 23.3 Mbps
Nominal bit rate : 30.0 Mbps
Width : 1 920 pixels
Height : 1 080 pixels
Display aspect ratio : 16:9
Frame rate : 23.976 fps
Color space : YUV
Chroma subsampling : 4:2:0
Bit depth : 8 bits
Scan type : Progressive
Compression mode : Lossy
Bits/(Pixel*Frame) : 0.468
Stream size : 17.4 GiB (57%)
Title : Terminator
Language : English
Audio #1
ID : 2
Format : DTS
Format/Info : Digital Theater Systems
Format profile : MA / Core
Codec ID : A_DTS
Duration : 1h 47mn
Bit rate mode : Variable
Bit rate : 1 561 Kbps / 1 510 Kbps
Channel(s) : 6 channels
Channel positions : Front: L C R, Side: L R, LFE
Sampling rate : 48.0 KHz
Bit depth : 16 bits
Compression mode : Lossless / Lossy
Title : DTS-HD MA 5.1 @ ~2248 kbps - MVO Киномания (новый перевод)
Language : Russian
Audio #2
ID : 3
Format : DTS
Format/Info : Digital Theater Systems
Format profile : MA / Core
Codec ID : A_DTS
Duration : 1h 47mn
Bit rate mode : Variable
Bit rate : 1 561 Kbps / 1 510 Kbps
Channel(s) : 6 channels
Channel positions : Front: L C R, Side: L R, LFE
Sampling rate : 48.0 KHz
Bit depth : 16 bits
Compression mode : Lossless / Lossy
Title : DTS-HD MA 5.1 @ ~2253 kbps - MVO Карусель
Language : Russian
Audio #3
ID : 4
Format : DTS
Format/Info : Digital Theater Systems
Format profile : MA / Core
Codec ID : A_DTS
Duration : 1h 47mn
Bit rate mode : Variable
Bit rate : 1 561 Kbps / 1 510 Kbps
Channel(s) : 6 channels
Channel positions : Front: L C R, Side: L R, LFE
Sampling rate : 48.0 KHz
Bit depth : 16 bits
Compression mode : Lossless / Lossy
Title : DTS-HD MA 5.1 @ ~2253 kbps - MVO Позитив Мультимедиа
Language : Russian
Audio #4
ID : 5
Format : DTS
Format/Info : Digital Theater Systems
Format profile : MA / Core
Codec ID : A_DTS
Duration : 1h 47mn
Bit rate mode : Variable
Bit rate : 1 561 Kbps / 1 510 Kbps
Channel(s) : 6 channels
Channel positions : Front: L C R, Side: L R, LFE
Sampling rate : 48.0 KHz
Bit depth : 16 bits
Compression mode : Lossless / Lossy
Title : DTS-HD MA 5.1 @ ~2246 kbps - AVO Д.Пучков (Goblin)
Language : Russian
Audio #5
ID : 6
Format : DTS
Format/Info : Digital Theater Systems
Format profile : MA / Core
Codec ID : A_DTS
Duration : 1h 47mn
Bit rate mode : Variable
Bit rate : 1 561 Kbps / 1 510 Kbps
Channel(s) : 6 channels
Channel positions : Front: L C R, Side: L R, LFE
Sampling rate : 48.0 KHz
Bit depth : 16 bits
Compression mode : Lossless / Lossy
Title : DTS-HD MA 5.1 @ ~2258 kbps - AVO Ю.Сербин
Language : Russian
Audio #6
ID : 7
Format : DTS
Format/Info : Digital Theater Systems
Format profile : MA / Core
Codec ID : A_DTS
Duration : 1h 47mn
Bit rate mode : Variable
Bit rate : 1 561 Kbps / 1 510 Kbps
Channel(s) : 6 channels
Channel positions : Front: L C R, Side: L R, LFE
Sampling rate : 48.0 KHz
Bit depth : 16 bits
Compression mode : Lossless / Lossy
Title : DTS-HD MA 5.1 @ ~2247 kbps - AVO А.Гаврилов (новый перевод)
Language : Russian
Audio #7
ID : 8
Format : DTS
Format/Info : Digital Theater Systems
Format profile : MA / Core
Codec ID : A_DTS
Duration : 1h 47mn
Bit rate mode : Variable
Bit rate : 1 561 Kbps / 1 510 Kbps
Channel(s) : 6 channels
Channel positions : Front: L C R, Side: L R, LFE
Sampling rate : 48.0 KHz
Bit depth : 16 bits
Compression mode : Lossless / Lossy
Title : DTS-HD MA 5.1 @ ~2246 kbps - AVO В.Горчаков
Language : Russian
Audio #8
ID : 9
Format : DTS
Format/Info : Digital Theater Systems
Format profile : MA / Core
Codec ID : A_DTS
Duration : 1h 47mn
Bit rate mode : Variable
Bit rate : 1 561 Kbps / 1 510 Kbps
Channel(s) : 6 channels
Channel positions : Front: L C R, Side: L R, LFE
Sampling rate : 48.0 KHz
Bit depth : 16 bits
Compression mode : Lossless / Lossy
Title : DTS-HD MA 5.1 @ ~2246 kbps - Оригинал
Language : English
Audio #9
ID : 10
Format : DTS
Format/Info : Digital Theater Systems
Codec ID : A_DTS
Duration : 1h 47mn
Bit rate mode : Constant
Bit rate : 1 510 Kbps
Channel(s) : 6 channels
Channel positions : Front: L C R, Side: L R, LFE
Sampling rate : 48.0 KHz
Bit depth : 24 bits
Compression mode : Lossy
Delay relative to video : 11ms
Stream size : 1.13 GiB (4%)
Title : DTS, 6ch @ 1536 kbps - MVO ОРТ Селена Интернешнл
Language : Russian
Audio #10
ID : 11
Format : DTS
Format/Info : Digital Theater Systems
Codec ID : A_DTS
Duration : 1h 47mn
Bit rate mode : Constant
Bit rate : 1 510 Kbps
Channel(s) : 6 channels
Channel positions : Front: L C R, Side: L R, LFE
Sampling rate : 48.0 KHz
Bit depth : 24 bits
Compression mode : Lossy
Delay relative to video : 11ms
Stream size : 1.13 GiB (4%)
Title : DTS, 6ch @ 1536 kbps - MVO Первый канал Останкино
Language : Russian
Audio #11
ID : 12
Format : AC-3
Format/Info : Audio Coding 3
Mode extension : CM (complete main)
Codec ID : A_AC3
Duration : 1h 47mn
Bit rate mode : Constant
Bit rate : 448 Kbps
Channel(s) : 6 channels
Channel positions : Front: L C R, Side: L R, LFE
Sampling rate : 48.0 KHz
Bit depth : 16 bits
Compression mode : Lossy
Stream size : 344 MiB (1%)
Title : AC3, 6ch @ 448 kbps - MVO Гемини Фильм
Language : Russian
Audio #12
ID : 13
Format : AC-3
Format/Info : Audio Coding 3
Mode extension : CM (complete main)
Codec ID : A_AC3
Duration : 1h 47mn
Bit rate mode : Constant
Bit rate : 448 Kbps
Channel(s) : 6 channels
Channel positions : Front: L C R, Side: L R, LFE
Sampling rate : 48.0 KHz
Bit depth : 16 bits
Compression mode : Lossy
Stream size : 344 MiB (1%)
Title : AC3, 6ch @ 448 kbps - AVO Держиморда (Hobbit)
Language : Russian
Audio #13
ID : 14
Format : AC-3
Format/Info : Audio Coding 3
Mode extension : CM (complete main)
Codec ID : A_AC3
Duration : 1h 47mn
Bit rate mode : Constant
Bit rate : 192 Kbps
Channel(s) : 2 channels
Channel positions : Front: L R
Sampling rate : 48.0 KHz
Bit depth : 16 bits
Compression mode : Lossy
Stream size : 147 MiB (0%)
Title : AC3, 2ch @ 192 kbps - AVO Л.Володарский
Language : Russian
Audio #14
ID : 15
Format : AC-3
Format/Info : Audio Coding 3
Mode extension : CM (complete main)
Codec ID : A_AC3
Duration : 1h 47mn
Bit rate mode : Constant
Bit rate : 192 Kbps
Channel(s) : 2 channels
Channel positions : Front: L R
Sampling rate : 48.0 KHz
Bit depth : 16 bits
Compression mode : Lossy
Stream size : 147 MiB (0%)
Title : AC3, 2ch @ 192 kbps - MVO 1+1
Language : Ukrainian
Text #1
ID : 16
Format : UTF-8
Codec ID : S_TEXT/UTF8
Codec ID/Info : UTF-8 Plain Text
Language : Russian
Text #2
ID : 17
Format : UTF-8
Codec ID : S_TEXT/UTF8
Codec ID/Info : UTF-8 Plain Text
Title : А.Гаврилов
Language : Russian
Text #3
ID : 18
Format : UTF-8
Codec ID : S_TEXT/UTF8
Codec ID/Info : UTF-8 Plain Text
Language : English
Text #4
ID : 19
Format : UTF-8
Codec ID : S_TEXT/UTF8
Codec ID/Info : UTF-8 Plain Text
Title : SDH
Language : English
Menu
00:00:00.000 : :00:00:00.000
00:06:23.925 : :00:06:23.925
00:13:38.234 : :00:13:38.234
00:15:04.737 : :00:15:04.737
00:22:42.528 : :00:22:42.528
00:29:42.698 : :00:29:42.698
00:38:40.026 : :00:38:40.026
00:41:18.101 : :00:41:18.101
00:47:39.398 : :00:47:39.398
00:54:34.480 : :00:54:34.480
01:03:46.614 : :01:03:46.614
01:09:29.123 : :01:09:29.123
01:17:11.710 : :01:17:11.710
01:26:17.631 : :01:26:17.631
01:32:12.277 : :01:32:12.277
01:36:07.762 : :01:36:07.762

Терминатор 2: Судный день

-Терминатор 2: Судный день / Terminator 2: Judgment Day [Special Edition]- Страна: США
Студия: Carolco
Жанр: Фантастика, Боевик, Триллер
Год выпуска: 1991
Продолжительность: 02:33:25
Режиссер: Джеймс Кэмерон / James Cameron
В ролях: Арнольд Шварценеггер, Линда Хэмилтон, Эдвард Ферлонг, Роберт Патрик, Эрл Боэн, Джо Мортон, С. Эпата Меркерсон, Кастуло Гуерра, Danny Cooksey ,Дженет Голдштейн
Описание: Война роботов и людей продолжается. Казалось, что человечество обречено на полное уничтожение. Но благодаря своему лидеру Джону Коннору у сопротивления появляется шанс победить. Не имея возможности убить Джона в реальном времени, роботы отправляют в прошлое свою самую совершенную разработку – терминатора-убийцу из жидкого металла, способного принимать любое обличье.
Теперь, чтобы победить в будущем. Юному Джону Коннору надо выжить в настоящем. Его шансы существенно повышаются, когда на помощь приходит перепрограммированный сопротивлением терминатор предыдущего поколения. Оба робота вступают в смертельный бой, от исхода которого зависит судьба человечества.-Качество: BD-Remux | Формат: MKV | Видео кодек: VC-1 | Аудио кодек: DTS-HD MA, DTS, AC3 |
Видео: 1920x1080 at 23.976 fps, VC-1, ~20.4 Mbps avg
Аудио#1: Russian: 48 kHz, DTS, 3/2 (L,C,R,l,r) + LFE ch, ~1536.00 kbps avg |Многоголосый закадровый, Киномания|
Аудио#2: Russian: 48 kHz, DTS, 3/2 (L,C,R,l,r) + LFE ch, ~1536.00 kbps avg |Многоголосый закадровый, Позитив Мультимедиа|
Аудио#3: Russian: 48 kHz, DTS, 3/2 (L,C,R,l,r) + LFE ch, ~1536.00 kbps avg |Многоголосый закадровый, ОРТ Селена Интернешнл| --> by suricat
Аудио#4: Russian: 48 kHz, DTS, 3/2 (L,C,R,l,r) + LFE ch, ~1536.00 kbps avg |Многоголосый закадровый, ТВ-6 Москва| --> by suricat
Аудио#5: Russian: 48 kHz, DTS, 3/2 (L,C,R,l,r) + LFE ch, ~1536.00 kbps avg |Одноголосый закадровый, Д.Пучков (Goblin)|
Аудио#6: Russian: 48 kHz/16-bit, DTS-HD MA 5.1, ~2115.00 kbps avg (DTS Core: 5.1 / 48 kHz / 1509 kbps / 16-bit) |Одноголосый закадровый, А.Гаврилов|
Аудио#7: Russian: 48 kHz/16-bit, DTS-HD MA 5.1, ~2117.00 kbps avg (DTS Core: 5.1 / 48 kHz / 1509 kbps / 16-bit) |Одноголосый закадровый, Ю.Живов|
Аудио#8: Russian: 48 kHz/16-bit, DTS-HD MA 5.1, ~2114.00 kbps avg (DTS Core: 5.1 / 48 kHz / 1509 kbps / 16-bit) |Одноголосый закадровый, В.Горчаков|
Аудио#9: English: 48 kHz/16-bit, DTS-HD MA 5.1, ~2110.00 kbps avg (DTS Core: 5.1 / 48 kHz / 1509 kbps / 16-bit)
Аудио#10: Russian: 48 kHz, AC3, 3/2 (L,C,R,l,r) + LFE ch, ~448.00 kbps avg |Многоголосый закадровый, CP Digital|
Аудио#11: Ukrainian: 48 kHz, AC3, 2/0 (L,R) ch, ~320.00 kbps avg |Многоголосый закадровый, 1+1|
Аудио#12: Ukrainian: 48 kHz, AC3, 2/0 (L,R) ch, ~320.00 kbps avg |Двухгоголосый закадровый, 1+1|
Аудио#13: English: 48 kHz, AC3, 2/0 (L,R) ch, ~224.00 kbps avg |Commentary №1
Аудио#14: English: 48 kHz, AC3, 2/0 (L,R) ch, ~224.00 kbps avg |Commentary №2
Субтитры: Russian (Позитив Мультимедиа), Russian (Д.Пучков), English, English (SDH), English (Commentary#1)

MInfo

General
Unique ID : 178279856915057563622399087547437604877 (0x861F7394F05F71368B9F3D91EB24E00D)
Complete name : E:\Blu-ray\Terminator\Terminator.2.Judgment.Day.1991.SE.BDRemux.1080p.VC-1.9xRus.2xUkr.Eng.mkv
Format : Matroska
File size : 39.1 GiB
Duration : 2h 33mn
Overall bit rate : 36.5 Mbps
Encoded date : UTC 2011-05-10 11:55:28
Writing application : mkvmerge v4.7.0 ('Just Like You Imagined') сборка от Apr 21 2011 01:13:14
Writing library : libebml v1.2.0 + libmatroska v1.1.0
Video
ID : 1
Format : VC-1
Format profile : AP@L3
Codec ID : WVC1
Codec ID/Hint : Microsoft
Duration : 2h 33mn
Bit rate : 20.4 Mbps
Width : 1 920 pixels
Height : 1 080 pixels
Display aspect ratio : 16:9
Frame rate : 23.976 fps
Chroma subsampling : 4:2:0
Bit depth : 8 bits
Scan type : Progressive
Compression mode : Lossy
Bits/(Pixel*Frame) : 0.410
Stream size : 21.9 GiB (56%)
Title : Terminator 2: Judgment Day
Language : English
Audio #1
ID : 2
Format : DTS
Format/Info : Digital Theater Systems
Codec ID : A_DTS
Duration : 2h 33mn
Bit rate mode : Constant
Bit rate : 1 510 Kbps
Channel(s) : 6 channels
Channel positions : Front: L C R, Side: L R, LFE
Sampling rate : 48.0 KHz
Bit depth : 24 bits
Compression mode : Lossy
Delay relative to video : 22ms
Stream size : 1.62 GiB (4%)
Title : DTS, 6ch @ 1536 kbps - MVO Киномания
Language : Russian
Audio #2
ID : 3
Format : DTS
Format/Info : Digital Theater Systems
Codec ID : A_DTS
Duration : 2h 33mn
Bit rate mode : Constant
Bit rate : 1 510 Kbps
Channel(s) : 6 channels
Channel positions : Front: L C R, Side: L R, LFE
Sampling rate : 48.0 KHz
Bit depth : 24 bits
Compression mode : Lossy
Delay relative to video : 22ms
Stream size : 1.62 GiB (4%)
Title : DTS, 6ch @ 1536 kbps - MVO Позитив Мультимедиа
Language : Russian
Audio #3
ID : 4
Format : DTS
Format/Info : Digital Theater Systems
Codec ID : A_DTS
Duration : 2h 33mn
Bit rate mode : Constant
Bit rate : 1 510 Kbps
Channel(s) : 6 channels
Channel positions : Front: L C R, Side: L R, LFE
Sampling rate : 48.0 KHz
Bit depth : 24 bits
Compression mode : Lossy
Delay relative to video : 22ms
Stream size : 1.62 GiB (4%)
Title : DTS, 6ch @ 1536 kbps - MVO ОРТ Селена Интернешнл
Language : Russian
Audio #4
ID : 5
Format : DTS
Format/Info : Digital Theater Systems
Codec ID : A_DTS
Duration : 2h 33mn
Bit rate mode : Constant
Bit rate : 1 510 Kbps
Channel(s) : 6 channels
Channel positions : Front: L C R, Side: L R, LFE
Sampling rate : 48.0 KHz
Bit depth : 24 bits
Compression mode : Lossy
Delay relative to video : 22ms
Stream size : 1.62 GiB (4%)
Title : DTS, 6ch @ 1536 kbps - MVO TV-6 Москва
Language : Russian
Audio #5
ID : 6
Format : DTS
Format/Info : Digital Theater Systems
Codec ID : A_DTS
Duration : 2h 33mn
Bit rate mode : Constant
Bit rate : 1 510 Kbps
Channel(s) : 6 channels
Channel positions : Front: L C R, Side: L R, LFE
Sampling rate : 48.0 KHz
Bit depth : 24 bits
Compression mode : Lossy
Delay relative to video : 11ms
Stream size : 1.62 GiB (4%)
Title : DTS, 6ch @ 1536 kbps - AVO Д.Пучков (Goblin)
Language : Russian
Audio #6
ID : 7
Format : DTS
Format/Info : Digital Theater Systems
Format profile : MA / Core
Codec ID : A_DTS
Duration : 2h 33mn
Bit rate mode : Variable
Bit rate : 1 561 Kbps / 1 510 Kbps
Channel(s) : 6 channels
Channel positions : Front: L C R, Side: L R, LFE
Sampling rate : 48.0 KHz
Bit depth : 16 bits
Compression mode : Lossless / Lossy
Title : DTS-HD MA 5.1 @ ~2115 kbps - AVO А.Гаврилов
Language : Russian
Audio #7
ID : 8
Format : DTS
Format/Info : Digital Theater Systems
Format profile : MA / Core
Codec ID : A_DTS
Duration : 2h 33mn
Bit rate mode : Variable
Bit rate : 1 561 Kbps / 1 510 Kbps
Channel(s) : 6 channels
Channel positions : Front: L C R, Side: L R, LFE
Sampling rate : 48.0 KHz
Bit depth : 16 bits
Compression mode : Lossless / Lossy
Title : DTS-HD MA 5.1 @ ~2117 kbps - AVO Ю.Живов
Language : Russian
Audio #8
ID : 9
Format : DTS
Format/Info : Digital Theater Systems
Format profile : MA / Core
Codec ID : A_DTS
Duration : 2h 33mn
Bit rate mode : Variable
Bit rate : 1 561 Kbps / 1 510 Kbps
Channel(s) : 6 channels
Channel positions : Front: L C R, Side: L R, LFE
Sampling rate : 48.0 KHz
Bit depth : 16 bits
Compression mode : Lossless / Lossy
Title : DTS-HD MA 5.1 @ ~2114 kbps - AVO В.Горчаков
Language : Russian
Audio #9
ID : 10
Format : DTS
Format/Info : Digital Theater Systems
Format profile : MA / Core
Codec ID : A_DTS
Duration : 2h 33mn
Bit rate mode : Variable
Bit rate : 1 576 Kbps / 1 510 Kbps
Channel(s) : 6 channels
Channel positions : Front: L C R, Side: L R, LFE
Sampling rate : 48.0 KHz
Bit depth : 16 bits
Compression mode : Lossless / Lossy
Title : DTS-HD MA 5.1 @ ~2110 kbps - Оригинал
Language : English
Audio #10
ID : 11
Format : AC-3
Format/Info : Audio Coding 3
Mode extension : CM (complete main)
Codec ID : A_AC3
Duration : 2h 33mn
Bit rate mode : Constant
Bit rate : 448 Kbps
Channel(s) : 6 channels
Channel positions : Front: L C R, Side: L R, LFE
Sampling rate : 48.0 KHz
Bit depth : 16 bits
Compression mode : Lossy
Stream size : 492 MiB (1%)
Title : AC3, 6ch @ 448 kbps - MVO CP Digital
Language : Russian
Audio #11
ID : 12
Format : AC-3
Format/Info : Audio Coding 3
Mode extension : CM (complete main)
Codec ID : A_AC3
Duration : 2h 33mn
Bit rate mode : Constant
Bit rate : 320 Kbps
Channel(s) : 2 channels
Channel positions : Front: L R
Sampling rate : 48.0 KHz
Bit depth : 16 bits
Compression mode : Lossy
Stream size : 351 MiB (1%)
Title : AC3, 2ch @ 320 kbps - MVO 1+1
Language : Ukrainian
Audio #12
ID : 13
Format : AC-3
Format/Info : Audio Coding 3
Mode extension : CM (complete main)
Codec ID : A_AC3
Duration : 2h 33mn
Bit rate mode : Constant
Bit rate : 320 Kbps
Channel(s) : 2 channels
Channel positions : Front: L R
Sampling rate : 48.0 KHz
Bit depth : 16 bits
Compression mode : Lossy
Stream size : 351 MiB (1%)
Title : AC3, 2ch @ 320 kbps - DVO 1+1
Language : Ukrainian
Audio #13
ID : 14
Format : AC-3
Format/Info : Audio Coding 3
Format profile : Dolby Digital
Mode extension : CM (complete main)
Codec ID : A_AC3
Duration : 2h 33mn
Bit rate mode : Constant
Bit rate : 224 Kbps
Channel(s) : 2 channels
Channel positions : Front: L R
Sampling rate : 48.0 KHz
Bit depth : 16 bits
Compression mode : Lossy
Stream size : 246 MiB (1%)
Title : AC3, 2ch @ 224 kbps - Комментарии №1
Language : English
Audio #14
ID : 15
Format : AC-3
Format/Info : Audio Coding 3
Mode extension : CM (complete main)
Codec ID : A_AC3
Duration : 2h 33mn
Bit rate mode : Constant
Bit rate : 224 Kbps
Channel(s) : 2 channels
Channel positions : Front: L R
Sampling rate : 48.0 KHz
Bit depth : 16 bits
Compression mode : Lossy
Stream size : 246 MiB (1%)
Title : AC3, 2ch @ 224 kbps - Комментарии №2
Language : English
Text #1
ID : 16
Format : UTF-8
Codec ID : S_TEXT/UTF8
Codec ID/Info : UTF-8 Plain Text
Title : Позитив Мультимедиа
Language : Russian
Text #2
ID : 17
Format : UTF-8
Codec ID : S_TEXT/UTF8
Codec ID/Info : UTF-8 Plain Text
Title : Д.Пучков (Goblin)
Language : Russian
Text #3
ID : 18
Format : UTF-8
Codec ID : S_TEXT/UTF8
Codec ID/Info : UTF-8 Plain Text
Language : English
Text #4
ID : 19
Format : UTF-8
Codec ID : S_TEXT/UTF8
Codec ID/Info : UTF-8 Plain Text
Title : SDH
Language : English
Text #5
ID : 20
Format : UTF-8
Codec ID : S_TEXT/UTF8
Codec ID/Info : UTF-8 Plain Text
Title : Комментарии №1
Language : English
Menu
00:00:00.000 : :00:00:00.000
00:05:35.210 : :00:05:35.210
00:16:31.407 : :00:16:31.407
00:31:19.878 : :00:31:19.878
00:38:52.664 : :00:38:52.664
00:49:48.110 : :00:49:48.110
01:06:24.314 : :01:06:24.314
01:28:59.751 : :01:28:59.751
01:35:16.753 : :01:35:16.753
01:44:23.799 : :01:44:23.799
01:59:43.593 : :01:59:43.593
02:08:43.716 : :02:08:43.716

Терминатор 3: Восстание машин

-Терминатор 3: Восстание машин / Terminator 3: Rise of the Machines- Страна: США
Студия: Columbia pictures
Жанр: Фантастика, Боевик, Триллер
Год выпуска: 2003
Продолжительность: 01:49:06
Режиссер: Джонатан Мостоу / Jonathan Mostow
В ролях: Арнольд Шварценеггер, Ник Сталь, Клер Дэйнс, Кристанна Локен, Дэвид Эндрюс, Марк Фамиглетти, Эрл Боэн, Мойра Харрис, Чоппер Бернет, Кристофер Лоуфорд, Кэролин Хеннеси, Джей Аковон, М.С. Гейни, Сьюзэн Мерсон, Элизабет Мохэд, Джимми Снайдер, Билли Д. Лукас, Брайан Сайтс, Алана Керри, Ларри МакКормик, Роберт Алонсо
Описание: Прошло десять лет с тех пор, как Джон Коннор помог предотвратить Судный День и спасти человечество от массового уничтожения. Теперь ему 25, Коннор не живет «как все» — у него нет дома, нет кредитных карт, нет сотового телефона и никакой работы. Его существование нигде не зарегистрировано. Он не может быть прослежен системой Skynet — высокоразвитой сетью машин, которые когда-то попробовали убить его и развязать войну против человечества. Пока из теней будущего не появляется T-X — Терминатрикс, самый сложный киборг-убийца Skynet. Посланная назад сквозь время, чтобы завершить работу, начатую её предшественником, T-1000, эта машина так же упорна, как прекрасен её человеческий облик. Теперь единственная надежда Коннору выжить — Терминатор, его таинственный прежний убийца. Вместе они должны одержать победу над новыми технологиями T-X и снова предотвратить Судный День…-Качество: BD-Remux | Формат: MKV | Видео кодек: AVC | Аудио кодек: DTS-HD MA, DTS, AC3 |
Видео: 1920x1080 at 23.976 fps, MPEG-4 AVC, ~28.6 Mbps avg
Аудио#1: Russian: 48 kHz, AC3, 3/2 (L,C,R,l,r) + LFE ch, ~448.00 kbps avg |Дубляж, Blu-ray CEE|
Аудио#2: Russian: 48 kHz/16-bit, DTS-HD MA 5.1, ~2442.00 kbps avg (DTS Core: 5.1 / 48 kHz / 1509 kbps / 16-bit) |Многоголосый закадровый, Карусель|
Аудио#3: Russian: 48 kHz/16-bit, DTS-HD MA 5.1, ~2439.00 kbps avg (DTS Core: 5.1 / 48 kHz / 1509 kbps / 16-bit) |Одноголосый закадровый, А.Гаврилов|
Аудио#4: English: 48 kHz/16-bit, DTS-HD MA 5.1, ~2434.00 kbps avg (DTS Core: 5.1 / 48 kHz / 1509 kbps / 16-bit)
Аудио#5: Russian: 48 kHz, AC3, 3/2 (L,C,R,l,r) + LFE ch, ~384.00 kbps avg |Многоголосый закадровый|
Аудио#6: Russian: 48 kHz, AC3, 3/2 (L,C,R,l,r) + LFE ch, ~384.00 kbps avg |Одноголосый закадровый, М.Чадов|
Аудио#7: Russian: 48 kHz, AC3, 3/2 (L,C,R,l,r) + LFE ch, ~448.00 kbps avg |Одноголосый закадровый, Держиморда|
Аудио#8: Russian: 48 kHz, AC3, 3/2 (L,C,R,l,r) + LFE ch, ~448.00 kbps avg |Одноголосый закадровый, Держиморда, наличие оригинального саундтрека|
Аудио#9: Ukrainian: 48 kHz, AC3, 2/0 (L,R) ch, ~320.00 kbps avg |Многоголосый закадровый, ТРК Украина|
Аудио#10: English: 48 kHz, AC3, 2/0 (L,R) ch, ~192.00 kbps avg |Commentary by Jonathan Mostow, Arnold Schwarzenegger, Nick Stahl, Claire Danes and Kristanna Loken|
Аудио#11: English: 48 kHz, AC3, 2/0 (L,R) ch, ~192.00 kbps avg |Commentary by Director Jonathan Mostow|
Субтитры: Russian (Full), Russian (Forced), English (Full), English (Commentary#1), English (Commentary#2)

MInfo

General
Unique ID : 204458000039602784383652055950118097802 (0x99D12DAFDACD9679AD2326E7BB14138A)
Complete name : E:\Blu-ray\Terminator\Terminator.3.Rise.of.the.Machines.2003.BDRemux.1080p.AVC.7xRus.Ukr.Eng.mkv
Format : Matroska
File size : 28.0 GiB
Duration : 1h 49mn
Overall bit rate : 36.8 Mbps
Encoded date : UTC 2011-05-04 17:04:26
Writing application : mkvmerge v4.7.0 ('Just Like You Imagined') сборка от Apr 21 2011 01:13:14
Writing library : libebml v1.2.0 + libmatroska v1.1.0
Video
ID : 1
Format : AVC
Format/Info : Advanced Video Codec
Format profile : High@L4.1
Format settings, CABAC : Yes
Format settings, ReFrames : 4 frames
Codec ID : V_MPEG4/ISO/AVC
Duration : 1h 49mn
Bit rate mode : Variable
Bit rate : 28.6 Mbps
Maximum bit rate : 28.5 Mbps
Width : 1 920 pixels
Height : 1 080 pixels
Display aspect ratio : 16:9
Frame rate : 23.976 fps
Color space : YUV
Chroma subsampling : 4:2:0
Bit depth : 8 bits
Scan type : Progressive
Bits/(Pixel*Frame) : 0.575
Stream size : 21.8 GiB (78%)
Title : Terminator 3: Rise of the Machines
Language : English
Color primaries : BT.709-5, BT.1361, IEC 61966-2-4, SMPTE RP177
Transfer characteristics : BT.709-5, BT.1361
Matrix coefficients : BT.709-5, BT.1361, IEC 61966-2-4 709, SMPTE RP177
Audio #1
ID : 2
Format : AC-3
Format/Info : Audio Coding 3
Mode extension : CM (complete main)
Codec ID : A_AC3
Duration : 1h 49mn
Bit rate mode : Constant
Bit rate : 448 Kbps
Channel(s) : 6 channels
Channel positions : Front: L C R, Side: L R, LFE
Sampling rate : 48.0 KHz
Bit depth : 16 bits
Compression mode : Lossy
Stream size : 350 MiB (1%)
Title : AC3, 6ch @ 448 kbps - Дубляж (Blu-ray CEE)
Language : Russian
Audio #2
ID : 3
Format : DTS
Format/Info : Digital Theater Systems
Format profile : MA / Core
Codec ID : A_DTS
Duration : 1h 49mn
Bit rate mode : Variable
Bit rate : 1 561 Kbps / 1 510 Kbps
Channel(s) : 6 channels
Channel positions : Front: L C R, Side: L R, LFE
Sampling rate : 48.0 KHz
Bit depth : 16 bits
Compression mode : Lossless / Lossy
Title : DTS-HD MA 5.1 @ ~2442 kbps - MVO Карусель
Language : Russian
Audio #3
ID : 4
Format : DTS
Format/Info : Digital Theater Systems
Format profile : MA / Core
Codec ID : A_DTS
Duration : 1h 49mn
Bit rate mode : Variable
Bit rate : 1 561 Kbps / 1 510 Kbps
Channel(s) : 6 channels
Channel positions : Front: L C R, Side: L R, LFE
Sampling rate : 48.0 KHz
Bit depth : 16 bits
Compression mode : Lossless / Lossy
Title : DTS-HD MA 5.1 @ ~2439 kbps - AVO А.Гаврилов
Language : Russian
Audio #4
ID : 5
Format : DTS
Format/Info : Digital Theater Systems
Format profile : MA / Core
Codec ID : A_DTS
Duration : 1h 49mn
Bit rate mode : Variable
Bit rate : 1 561 Kbps / 1 510 Kbps
Channel(s) : 6 channels
Channel positions : Front: L C R, Side: L R, LFE
Sampling rate : 48.0 KHz
Bit depth : 16 bits
Compression mode : Lossless / Lossy
Title : DTS-HD MA 5.1 @ ~2434 kbps - Оригинал
Language : English
Audio #5
ID : 6
Format : AC-3
Format/Info : Audio Coding 3
Mode extension : CM (complete main)
Codec ID : A_AC3
Duration : 1h 49mn
Bit rate mode : Constant
Bit rate : 384 Kbps
Channel(s) : 6 channels
Channel positions : Front: L C R, Side: L R, LFE
Sampling rate : 48.0 KHz
Bit depth : 16 bits
Compression mode : Lossy
Stream size : 300 MiB (1%)
Title : AC3, 6ch @ 384 kbps - MVO
Language : Russian
Audio #6
ID : 7
Format : AC-3
Format/Info : Audio Coding 3
Mode extension : CM (complete main)
Codec ID : A_AC3
Duration : 1h 49mn
Bit rate mode : Constant
Bit rate : 384 Kbps
Channel(s) : 6 channels
Channel positions : Front: L C R, Side: L R, LFE
Sampling rate : 48.0 KHz
Bit depth : 16 bits
Compression mode : Lossy
Stream size : 300 MiB (1%)
Title : AC3, 6ch @ 384 kbps - AVO М.Чадов
Language : Russian
Audio #7
ID : 8
Format : AC-3
Format/Info : Audio Coding 3
Mode extension : CM (complete main)
Codec ID : A_AC3
Duration : 1h 49mn
Bit rate mode : Constant
Bit rate : 448 Kbps
Channel(s) : 6 channels
Channel positions : Front: L C R, Side: L R, LFE
Sampling rate : 48.0 KHz
Bit depth : 16 bits
Compression mode : Lossy
Stream size : 350 MiB (1%)
Title : AC3, 6ch @ 448 kbps - AVO Держиморда (Hobbit)
Language : Russian
Audio #8
ID : 9
Format : AC-3
Format/Info : Audio Coding 3
Mode extension : CM (complete main)
Codec ID : A_AC3
Duration : 1h 49mn
Bit rate mode : Constant
Bit rate : 448 Kbps
Channel(s) : 6 channels
Channel positions : Front: L C R, Side: L R, LFE
Sampling rate : 48.0 KHz
Bit depth : 16 bits
Compression mode : Lossy
Stream size : 350 MiB (1%)
Title : AC3, 6ch @ 448 kbps - AVO Держиморда (Hobbit) [оригинальный саундтрек]
Language : Russian
Audio #9
ID : 10
Format : AC-3
Format/Info : Audio Coding 3
Mode extension : CM (complete main)
Codec ID : A_AC3
Duration : 1h 49mn
Bit rate mode : Constant
Bit rate : 320 Kbps
Channel(s) : 2 channels
Channel positions : Front: L R
Sampling rate : 48.0 KHz
Bit depth : 16 bits
Compression mode : Lossy
Stream size : 250 MiB (1%)
Title : AC3, 2ch @ 320 kbps - MVO ТРК Украина
Language : Ukrainian
Audio #10
ID : 11
Format : AC-3
Format/Info : Audio Coding 3
Format profile : Dolby Digital
Mode extension : CM (complete main)
Codec ID : A_AC3
Duration : 1h 49mn
Bit rate mode : Constant
Bit rate : 192 Kbps
Channel(s) : 2 channels
Channel positions : Front: L R
Sampling rate : 48.0 KHz
Bit depth : 16 bits
Compression mode : Lossy
Stream size : 150 MiB (1%)
Title : AC3, 2ch @ 192 kbps - Комментарии №1
Language : English
Audio #11
ID : 12
Format : AC-3
Format/Info : Audio Coding 3
Format profile : Dolby Digital
Mode extension : CM (complete main)
Codec ID : A_AC3
Duration : 1h 49mn
Bit rate mode : Constant
Bit rate : 192 Kbps
Channel(s) : 2 channels
Channel positions : Front: L R
Sampling rate : 48.0 KHz
Bit depth : 16 bits
Compression mode : Lossy
Stream size : 150 MiB (1%)
Title : AC3, 2ch @ 192 kbps - Комментарии №2
Language : English
Text #1
ID : 13
Format : UTF-8
Codec ID : S_TEXT/UTF8
Codec ID/Info : UTF-8 Plain Text
Title : Форсированные
Language : Russian
Text #2
ID : 14
Format : UTF-8
Codec ID : S_TEXT/UTF8
Codec ID/Info : UTF-8 Plain Text
Title : Полные
Language : Russian
Text #3
ID : 15
Format : UTF-8
Codec ID : S_TEXT/UTF8
Codec ID/Info : UTF-8 Plain Text
Language : English
Text #4
ID : 16
Format : UTF-8
Codec ID : S_TEXT/UTF8
Codec ID/Info : UTF-8 Plain Text
Title : Комментарии №1
Language : English
Text #5
ID : 17
Format : UTF-8
Codec ID : S_TEXT/UTF8
Codec ID/Info : UTF-8 Plain Text
Title : Комментарии №2
Language : English
Menu
00:00:00.000 : :00:00:00.000
00:00:52.552 : :00:00:52.552
00:02:09.671 : :00:02:09.671
00:02:54.341 : :00:02:54.341
00:03:50.730 : :00:03:50.730
00:05:09.809 : :00:05:09.809
00:06:21.214 : :00:06:21.214
00:07:28.823 : :00:07:28.823
00:08:30.135 : :00:08:30.135
00:09:22.437 : :00:09:22.437
00:11:30.940 : :00:11:30.940
00:15:05.488 : :00:15:05.488
00:16:23.858 : :00:16:23.858
00:18:06.294 : :00:18:06.294
00:18:55.968 : :00:18:55.968
00:20:26.308 : :00:20:26.308
00:22:28.514 : :00:22:28.514
00:23:59.605 : :00:23:59.605
00:24:59.164 : :00:24:59.164
00:26:25.042 : :00:26:25.042
00:27:19.137 : :00:27:19.137
00:29:11.249 : :00:29:11.249
00:29:54.376 : :00:29:54.376
00:32:14.266 : :00:32:14.266
00:34:24.646 : :00:34:24.646
00:35:13.111 : :00:35:13.111
00:36:04.245 : :00:36:04.245
00:38:19.506 : :00:38:19.506
00:40:30.511 : :00:40:30.511
00:42:29.255 : :00:42:29.255
00:45:51.082 : :00:45:51.082
00:48:47.007 : :00:48:47.007
00:51:03.686 : :00:51:03.686
00:52:21.638 : :00:52:21.638
00:55:05.802 : :00:55:05.802
00:56:33.348 : :00:56:33.348
00:58:11.822 : :00:58:11.822
00:59:40.035 : :00:59:40.035
01:00:11.775 : :01:00:11.775
01:02:22.447 : :01:02:22.447
01:03:47.657 : :01:03:47.657
01:06:02.125 : :01:06:02.125
01:07:45.520 : :01:07:45.520
01:09:04.349 : :01:09:04.349
01:12:16.624 : :01:12:16.624
01:14:27.421 : :01:14:27.421
01:15:43.456 : :01:15:43.456
01:19:07.534 : :01:19:07.534
01:20:18.981 : :01:20:18.981
01:21:27.216 : :01:21:27.216
01:22:41.206 : :01:22:41.206
01:23:57.199 : :01:23:57.199
01:25:03.265 : :01:25:03.265
01:25:46.391 : :01:25:46.391
01:26:30.560 : :01:26:30.560
01:27:29.035 : :01:27:29.035
01:29:07.050 : :01:29:07.050
01:31:58.388 : :01:31:58.388
01:33:37.070 : :01:33:37.070
01:34:32.333 : :01:34:32.333
01:35:54.040 : :01:35:54.040
01:37:31.304 : :01:37:31.304
01:39:22.915 : :01:39:22.915
01:41:00.096 : :01:41:00.096

Дополнительная информация

Сохранены оригинальные чаптеры как на Blu-ray.
Английский LPCM для первой части и Dolby TrueHD для 3й были пересобраны в DTS-HD MA.
Все русские DTS-HD MA дорожки получены наложением чистого голоса на оригинал.
Для первого Терминатора существует множество озвучек, были включены лучшее, из того что есть. Дорожка с Володаркским включена в раздачу, ибо нельзя не включить. Лучшее, имхо, это Киномания и Пучков.
Переводы от Держиморды, искажают сюжет и содержат около 9000 матерных слов на квадратный сантиметр. На любителя.
Для 2й части за исходник был взято, сингловое издание с режиссерской версией. Коллекционное 3 в 1 было отброшено, по причине убитости изображения шумодавом. Также 24 битная дорога оказалась хуже 16 битной в сингле. Единственное что было взято с издания 3 в 1 - это английские субтитры, которые мне очень понравились. В русских субтитрах есть мат.
В переводе Пучкова для 2й части, отсутствует финальный монолог Сары Коннор. На него субтитры. В переводе Киномании, иногда звучит полный бред, но по подбору голосов данный перевод лучший.
В переводе от «Позитив-Мультимедиа» есть места без перевода. Решил не добавлять другие голоса на пропущенные моменты, чтобы не портить картину. Дорожка стоит по-умолчанию, так как имеет лучший перевод и качество среди многоголосых переводов.
Дорожка от «CP Digital» была сделана кое как. Пришлось над ней немного поработать и подгонять под видеопоток. Сам перевод, не плох, смотреть можно.
На СЕЕ издании 3й части отсутствовали полные русские субтитры. Пришлось набирать свои, на основе найденных в интернете.
Модифицированный релиз by Daddy_BOSS

[Цитировать]



Показать сообщения:    

Текущее время: 11-Дек 09:12

Часовой пояс: UTC + 3


Вы не можете начинать темы
Вы не можете отвечать на сообщения
Вы не можете редактировать свои сообщения
Вы не можете удалять свои сообщения
Вы не можете голосовать в опросах
Вы не можете прикреплять файлы к сообщениям
Вы не можете скачивать файлы

!ВНИМАНИЕ!
Сайт не предоставляет электронные версии произведений, а занимается лишь коллекционированием и каталогизацией ссылок, присылаемых и публикуемых на форуме нашими читателями. Если вы являетесь правообладателем какого-либо представленного материала и не желаете, чтобы ссылка на него находилась в нашем каталоге, свяжитесь с нами, и мы незамедлительно удалим ее. Файлы для обмена на трекере предоставлены пользователями сайта, и администрация не несет ответственности за их содержание. Просьба не заливать файлы, защищенные авторскими правами, а также файлы нелегального содержания!