[ Сегодня идет свободное скачивание без начисления Download ]


Статистика раздачи
Нет
 
   
 
Top  
 
 
-Линкольн / Lincoln (2012) BDRip- Русское название: Линкольн
Оригинальное название: Lincoln
Год выпуска: 2012
Производство: США - 20th Century Fox Film Corporation, DreamWorks
Жанр: Драма, военный, биография, история
Перевод: дублированный, многоголосый закадровый
Озвучка / Автор перевода: Line, Baibako, Цікава Ідея
Субтитры: Вшитые отключаемые
Язык субтитров: Русский, английский, английский (SDH)
Режиссер: Стивен Спилберг / Steven Spielberg
Актеры: Стивен Спилберг, Кэтлин Кеннеди, Джонатан Кинг Актеры: Дэниэл Дэй-Льюис, Салли Филд, Дэвид Стрэтэйрн, Джозеф Гордон-Левитт, Джеймс Спэйдер, Хэл Холбрук, Томми Ли Джонс, Джон Хоукс, Джеки Эрл Хейли, Брюс МакГилл
Описание фильма:
Биографическая лента об Аврааме Линкольне, шестнадцатом президенте США, который внес неоценимый вклад в победу северян во времена гражданской войны.- -Дата мировой премьеры: 8 октября 2012
Дата российской премьеры: 24 января 2013, «Двадцатый Век Фокс СНГ»
Дата выхода DVD релиза: 16 мая 2013, «Двадцатый Век Фокс СНГ»
Продолжительность: 02:29:57
Качество видео: BDRip 1080p
Видеокодек: MPEG-4 AVC/H.264
Размер кадра: H264, 1920x800 (2.40:1), 11,5 Мбит/сек, 23.976 fps
Аудио #1: Русский: AC3, 448 кбит/c, 5.1, 48 kHz, 16 bit - дублированный Line
Аудио #2: Русский: AC3, 448 кбит/c, 5.1, 48 kHz, 16 bit - многолосый закадровый Baibako
Аудио #3: Украинский: DTS, 1536 кбит/c, 5.1, 48 kHz, 24 bit - многоголосый закадровый Цікава ідея
Аудио #4: Английский: DTS, 1536 кбит/c, 5.1, 48 kHz, 24 bit

Сохранены оригинальные чаптеры как на Blu-Ray

Награды и номинации

Оскар, 2013 год

Победитель (2):

Лучшая мужская роль (Дэниэл Дэй-Льюис)
Лучшая работа художника-постановщика
Номинации (10):
Лучший фильм
Лучшая мужская роль второго плана (Томми Ли Джонс)
Лучшая женская роль второго плана (Салли Филд)
Лучший режиссер (Стивен Спилберг)
Лучший адаптированный сценарий
Лучшая работа оператора
Лучшие костюмы
Лучший звук
Лучший монтаж
Лучший саундтрек
Золотой глобус, 2013 год
Победитель (1):
Лучшая мужская роль (драма) (Дэниэл Дэй-Льюис)
Номинации (6):
Лучший фильм (драма)
Лучшая мужская роль второго плана (Томми Ли Джонс)
Лучшая женская роль второго плана (Салли Филд)
Лучший режиссер (Стивен Спилберг)
Лучший сценарий
Лучший саундтрек
Британская академия, 2013 год
Победитель (1):
Лучшая мужская роль (Дэниэл Дэй-Льюис)
Номинации (9):
Лучший фильм
Лучшая мужская роль второго плана (Томми Ли Джонс)
Лучшая женская роль второго плана (Салли Филд)
Лучший адаптированный сценарий
Лучшая работа оператора
Лучшие костюмы
Лучший саундтрек
Лучший грим/прически
Лучшая работа художника-постановщика (Рик Картер, Джим Эриксон)

Рецензия, отзыв о фильме::

«Это очевидно…мы начинаем с равноправия — это ведь основа. Не так ли?! Так справедливо. Так будет честно»
Авраам Линкольн — одна из центральных исторических фигур истории США. Гражданская война 1861-1865, начавшаяся сначала с целью объединения Севера и Юга, обратилась в войну против рабского труда и за свободу чернокожего населения. Ведь без отмены рабства невозможно было достигнуть единения.
В фильме, перед нами предстает Север Соединенных штатов и Авраам Линкольн (Дэниэл Дэй-Льюис), вступающий на свой второй президентский срок. Его любят, видят в нем своего человека, ведь вышедший из народа он провозглашал принцип «власти из народа и для народа».
Действия разворачиваются уже после подписания «Прокламации об освобождении рабов», которая была принята в режиме военного положения с превышением властных полномочий президента. Будучи юристом, Линкольн понимает всю неустойчивость данного документа для мирного времени. Необходимость фундаментального провозглашения отмены рабства приводит президента к лоббированию в Конгрессе 13 Поправки в Конституцию, благодаря принятию которой рабство стало бы пережитком прошлого…
13 Поправка или «противоядие от заразы»
Постоянные переговоры в Белом Доме, стратегии ведения войны, протекции, большое количество схожих друг с другом политиков и во главе всего … долговязый джентльмен. Как умело и ненавязчиво режиссер (Стивен Спилберг) рисует портрет поистине уникального человека, личности, талантливого политика. Объективно видящий реальность, умеющий мыслить, не боящийся ответственности — таким мы видим Линкольна-президента и трогательного отца. В его портрете не чувствуется фальши. Его нравственность не показная, она связанна с разумностью. Эта цельная неординарная личность прекрасно представлена нам игрой Дэниэла Дэй Льюиса, за что он совершенно заслуженно был отмечен премией Оскар.
Еще одним ярким персонажем является один из соратников президента — сенатор Стивенс (Томми Ли Джонс). У данного героя своя история, свои мотивы отмены рабства и именно через его пламенную речь в Конгрессе постепенно раскрывается замысел 13 Поправки. Мы понимаем, что не зря Линкольн цитировал Евклида тем молодым людям: «Две вещи равные третьей — равны друг другу». И это третье было найдено — 13 Поправка. Ведь что как не закон может уровнять и белых и черных?!
P.S. Фильм рекомендуется к просмотру с целью исторического ликбеза. Еще одна качественная картина Стивена Спилберга с действительно хорошо играющими Дэниэлом Дэй-Льюисом, Салли Филд, Дэвидом Стрэтэйрном, Джозефом Гордон-Левиттом, Томми Ли Джонсом.
8 из 10

MediaInfo:

Общее
Уникальный идентификатор : 219131125971753466311633414375897850687 (0xA4DB1EA656BDB43D98C09F9E39C0633F)
Полное имя : D:\Video\Lincoln.2012.x264.BDRip.1080p.ac3.dts.Rus.Ukr.Eng.mkv
Формат : Matroska
Версия формата : Version 2
Размер файла : 16,1 Гбайт
Продолжительность : 2 ч. 29 м.
Общий поток : 15,4 Мбит/сек
Название фильма : VarMkn
Дата кодирования : UTC 2013-03-22 20:37:40
Программа кодирования : mkvmerge v5.4.0 ('Piper') built on Mar 10 2012 13:34:39
Библиотека кодирования : libebml v1.2.3 + libmatroska v1.3.0
Видео
Идентификатор : 1
Формат : AVC
Формат/Информация : Advanced Video Codec
Профиль формата : High@L4.1
Параметр CABAC формата : Да
Параметр ReFrames формата : 5 кадров
Идентификатор кодека : V_MPEG4/ISO/AVC
Продолжительность : 2 ч. 29 м.
Битрейт : 11,5 Мбит/сек
Ширина : 1920 пикселей
Высота : 800 пикселей
Соотношение сторон : 2,40:1
Частота кадров : 23,976 кадра/сек
Цветовое пространство : YUV
Субдискретизация насыщенности : 4:2:0
Битовая глубина : 8 бит
Тип развёртки : Прогрессивная
Бит/(Пиксели*Кадры) : 0.312
Размер потока : 11,7 Гбайт (73%)
Библиотека кодирования : x264 core 128 r2216+698 b3c1019
Настройки программы : cabac=1 / ref=5 / deblock=1:-3:-3 / analyse=0x3:0x113 / me=umh / subme=10 / psy=1 / fade_compensate=0.00 / psy_rd=1.10:0.10 / mixed_ref=1 / me_range=48 / chroma_me=1 / trellis=2 / 8x8dct=1 / cqm=0 / deadzone=21,11 / fast_pskip=0 / chroma_qp_offset=-2 / threads=12 / lookahead_threads=2 / sliced_threads=0 / nr=0 / decimate=1 / interlaced=0 / bluray_compat=0 / constrained_intra=0 / fgo=0 / bframes=6 / b_pyramid=2 / b_adapt=2 / b_bias=0 / direct=3 / weightb=1 / open_gop=0 / weightp=2 / keyint=250 / keyint_min=23 / scenecut=40 / intra_refresh=0 / rc_lookahead=40 / rc=2pass / mbtree=0 / bitrate=11500 / ratetol=2.0 / qcomp=0.70 / qpmin=0 / qpmax=69 / qpstep=4 / cplxblur=20.0 / qblur=0.5 / vbv_maxrate=40000 / vbv_bufsize=30000 / nal_hrd=none / ip_ratio=1.40 / pb_ratio=1.30 / aq=2:1.00
Язык : English
Default : Да
Forced : Нет
Аудио #1
Идентификатор : 2
Формат : AC-3
Формат/Информация : Audio Coding 3
Расширение режима : CM (complete main)
Идентификатор кодека : A_AC3
Продолжительность : 2 ч. 29 м.
Вид битрейта : Постоянный
Битрейт : 448 Кбит/сек
Каналы : 6 каналов
Расположение каналов : Front: L C R, Side: L R, LFE
Частота : 48,0 КГц
Битовая глубина : 16 бит
Метод сжатия : С потерями
Размер потока : 480 Мбайт (3%)
Заголовок : Дубляж - [Line]
Язык : Russian
Default : Да
Forced : Да
Аудио #2
Идентификатор : 3
Формат : AC-3
Формат/Информация : Audio Coding 3
Расширение режима : CM (complete main)
Идентификатор кодека : A_AC3
Продолжительность : 2 ч. 29 м.
Вид битрейта : Постоянный
Битрейт : 448 Кбит/сек
Каналы : 6 каналов
Расположение каналов : Front: L C R, Side: L R, LFE
Частота : 48,0 КГц
Битовая глубина : 16 бит
Метод сжатия : С потерями
Размер потока : 480 Мбайт (3%)
Заголовок : MVO - [BaiBaKo]
Язык : Russian
Default : Нет
Forced : Нет
Аудио #3
Идентификатор : 4
Формат : DTS
Формат/Информация : Digital Theater Systems
Идентификатор кодека : A_DTS
Продолжительность : 2 ч. 29 м.
Вид битрейта : Постоянный
Битрейт : 1510 Кбит/сек
Каналы : 6 каналов
Расположение каналов : Front: L C R, Side: L R, LFE
Частота : 48,0 КГц
Битовая глубина : 24 бит
Метод сжатия : С потерями
Размер потока : 1,58 Гбайт (10%)
Заголовок : Ukrainian - MVO 448 kbs
Язык : Ukrainian
Default : Нет
Forced : Нет
Аудио #4
Идентификатор : 5
Формат : DTS
Формат/Информация : Digital Theater Systems
Идентификатор кодека : A_DTS
Продолжительность : 2 ч. 29 м.
Вид битрейта : Постоянный
Битрейт : 1510 Кбит/сек
Каналы : 6 каналов
Расположение каналов : Front: L C R, Side: L R, LFE
Частота : 48,0 КГц
Битовая глубина : 24 бит
Метод сжатия : С потерями
Задержка видео : 11 мс.
Размер потока : 1,58 Гбайт (10%)
Заголовок : English DTS @ 1536
Язык : English
Default : Нет
Forced : Нет
Текст #1
Идентификатор : 6
Формат : UTF-8
Идентификатор кодека : S_TEXT/UTF8
Идентификатор кодека/Информация : UTF-8 Plain Text
Заголовок : Russian
Язык : Russian
Default : Нет
Forced : Нет
Текст #2
Идентификатор : 7
Формат : UTF-8
Идентификатор кодека : S_TEXT/UTF8
Идентификатор кодека/Информация : UTF-8 Plain Text
Заголовок : English
Язык : English
Default : Нет
Forced : Нет
Текст #3
Идентификатор : 8
Формат : UTF-8
Идентификатор кодека : S_TEXT/UTF8
Идентификатор кодека/Информация : UTF-8 Plain Text
Заголовок : English SDH
Язык : English
Default : Нет
Forced : Нет
Меню
00:00:00.000 : en:00:00:00.000
00:06:11.246 : en:00:06:11.246
00:13:57.920 : en:00:13:57.920
00:23:16.604 : en:00:23:16.604
00:35:13.570 : en:00:35:13.570
00:40:31.929 : en:00:40:31.929
00:45:53.793 : en:00:45:53.793
00:52:56.840 : en:00:52:56.840
00:59:45.874 : en:00:59:45.874
01:08:25.977 : en:01:08:25.977
01:18:55.940 : en:01:18:55.940
01:24:30.607 : en:01:24:30.607
01:35:41.486 : en:01:35:41.486
01:39:58.868 : en:01:39:58.868
01:46:40.769 : en:01:46:40.769
01:52:54.184 : en:01:52:54.184
02:02:51.030 : en:02:02:51.030
02:09:32.264 : en:02:09:32.264
02:15:42.718 : en:02:15:42.718
02:21:23.308 : en:02:21:23.308
Скриншоты:


Время раздачи: с 10:00 до 20:00 (GMT+2) - до 15 скачавших

[Цитировать]

Топик был перенесен из форума Драма в форум Зарубежное кино (HD Video)
Bootch



Показать сообщения:    

Текущее время: 11-Дек 16:53

Часовой пояс: UTC + 3


Вы не можете начинать темы
Вы не можете отвечать на сообщения
Вы не можете редактировать свои сообщения
Вы не можете удалять свои сообщения
Вы не можете голосовать в опросах
Вы не можете прикреплять файлы к сообщениям
Вы не можете скачивать файлы

!ВНИМАНИЕ!
Сайт не предоставляет электронные версии произведений, а занимается лишь коллекционированием и каталогизацией ссылок, присылаемых и публикуемых на форуме нашими читателями. Если вы являетесь правообладателем какого-либо представленного материала и не желаете, чтобы ссылка на него находилась в нашем каталоге, свяжитесь с нами, и мы незамедлительно удалим ее. Файлы для обмена на трекере предоставлены пользователями сайта, и администрация не несет ответственности за их содержание. Просьба не заливать файлы, защищенные авторскими правами, а также файлы нелегального содержания!