[ Сегодня идет свободное скачивание без начисления Download ]


Статистика раздачи
Нет
 
   
 
Top  
 
 
-Сваты 6 [1-16 серии из 16] (2013) SATRip- Русское название: Сваты 6
Выпущено: «Студия Квартал-95»
Год выпуска: 2013
Жанр: Комедия
Перевод: Оригинал (Русский)
Субтитры: Отсутствуют

Дата украинской премьеры: 11 марта 2013
Режиссер: Андрей Яковлев, Эдуард Радзюкевич
Актеры: Фёдор Добронравов, Татьяна Кравченко, Людмила Артемьева, Анна Кошмал, Александр Феклистов, Анна Полищук, Костя Чернокрылюк, Олеся Железняк, Николай Добрынин, Владимир Зельдин, Ольга Аросева, Даниил Белых, Инна Королёва, Эммануил Виторган, Елена Сафонова, Роман Лукьянов, Евгений Капорин, Фёдор Гуринец, Алексей Смолка, Денис Шепотинник, Татьяна Васильева, Мария Кочур, Екатерина Варченко
Описание фильма:
Женя Ковалева (Анна Кошмал) перестала быть готом и теперь у нее новые страдания - мальчики почти не обращают на нее внимания. Она плачет в подушку днями и ночами, а родители Евгении не знают, что делать. Близнецы снова проказничают и не дают родителям спокойно жить, постоянно достают страдающую старшую сестру. Когда бабушки и дедушка интересуются жизнью своих внуков и детей, родители вновь стараются скрыть все невзгоды их семьи, но это сделать не получается, ибо сваты чувствуют нечто неладное и приезжают к Маше(Инна Королёва) и Максиму(Даниил Белых). Конечно, они не могут оставить всё происходящее без дела и берутся за перевоспитание и усмирение близнецов Ковалевых, а также помогают Женечке решить ее проблему.
Близится лето. Все едут в Кучугуры. Там у них снова много приключений, в их жизнь вписывается Лариса(Олеся Железняк) с Митяем(Николай Добрынин), у которых появилась... двойня. Однако за лето, не решив много проблем, сваты с чувством неудачи возвращают детей домой. Спустя несколько месяцев наступают новогодние каникулы. Родители улетают в Испанию, а своих детей отправляют... неизвестно кому, то ли Берковичу (Александр Феклистов) и Ольге Николаевне (Людмила Артемьева), то ли Валюхе (Татьяна Кравченко) с Иваном (Федор Добронравов)... Сваты не могут решить, у кого будет внучка, вследствие чего Оля с Берковичем на время зимних каникул перебираются к Валюхе с Иваном. Внезапно приезжают родители сватов, и они вместе проходят ряд очередных приключений и встречают новый год. Близнецы становятся послушными, а Женя встречает Кирилла (Денис Шепотинник)и её и "Сватов" ждут новые смешные истории.
Продолжительность: 16 х ~00:52:00 серия
Качество видео: SATRip
Видеокодек: XviD
Битрейт видео: ~1700 kbps
Размер кадра: 720x400
Аудиокодек: MP3, 2 ch
Битрейт аудио: 192.00 kbps
Релиз группа:

MediaInfo

Общее
Полное имя : F:\Фильмы\Сваты-6\Сваты6.01.avi
Формат : AVI
Формат/Информация : Audio Video Interleave
Размер файла : 651 Мбайт
Продолжительность : 47 м.
Общий поток : 1907 Кбит/сек
Программа кодирования : VirtualDubModRus 1.5.10.2 (build 2542/release)
Библиотека кодирования : VirtualDubMod build 2542/release
Видео
Идентификатор : 0
Формат : MPEG-4 Visual
Профиль формата : Advanced Simple@L5
Параметр BVOP формата : 1
Параметр QPel формата : Нет
Параметр GMC формата : Без точки перехода
Параметр матрицы формата : Default (H.263)
Идентификатор кодека : XVID
Идентификатор кодека/Подсказка : XviD
Продолжительность : 47 м.
Битрейт : 1705 Кбит/сек
Ширина : 720 пикселей
Высота : 400 пикселей
Соотношение сторон : 16:9
Частота кадров : 25,000 кадров/сек
Цветовое пространство : YUV
Субдискретизация насыщенности : 4:2:0
Битовая глубина : 8 бит
Тип развёртки : Прогрессивная
Метод сжатия : С потерями
Бит/(Пиксели*Кадры) : 0.237
Размер потока : 582 Мбайт (89%)
Библиотека кодирования : XviD 1.2.1 (UTC 2008-12-04)
Аудио
Идентификатор : 1
Формат : MPEG Audio
Версия формата : Version 1
Профиль формата : Layer 3
Режим : Joint stereo
Расширение режима : MS Stereo
Идентификатор кодека : 55
Идентификатор кодека/Подсказка : MP3
Продолжительность : 47 м.
Вид битрейта : Постоянный
Битрейт : 192 Кбит/сек
Каналы : 2 канала
Частота : 48,0 КГц
Метод сжатия : С потерями
Размер потока : 65,6 Мбайт (10%)
Выравнивание : Соединение по промежуткам
Продолжительность промежутка : 40 мс. (1,00 видеокадр)
Время предзагрузки промежутка : 504 мс.
Библиотека кодирования : LAME3.98r
Настройки программы : -m j -V 4 -q 2 -lowpass 18.6 -b 192
Скриншоты:
Сваты 6 на torrentsclubВремя раздачи: 24/7 (до 10 скачавших)

[Цитировать]



Показать сообщения:    

Текущее время: 03-Дек 01:13

Часовой пояс: UTC + 3


Вы не можете начинать темы
Вы не можете отвечать на сообщения
Вы не можете редактировать свои сообщения
Вы не можете удалять свои сообщения
Вы не можете голосовать в опросах
Вы не можете прикреплять файлы к сообщениям
Вы не можете скачивать файлы

!ВНИМАНИЕ!
Сайт не предоставляет электронные версии произведений, а занимается лишь коллекционированием и каталогизацией ссылок, присылаемых и публикуемых на форуме нашими читателями. Если вы являетесь правообладателем какого-либо представленного материала и не желаете, чтобы ссылка на него находилась в нашем каталоге, свяжитесь с нами, и мы незамедлительно удалим ее. Файлы для обмена на трекере предоставлены пользователями сайта, и администрация не несет ответственности за их содержание. Просьба не заливать файлы, защищенные авторскими правами, а также файлы нелегального содержания!