[ Сегодня идет свободное скачивание без начисления Download ]


Статистика раздачи
Нет
 
   
 
Top  
 
 
Святые роллеры / Holy Rollers

-
-Страна: США
Студия: Deerjen Films, Lookbook Films, Safehouse Pictures
Жанр: драма, криминал
Год выпуска: 2010
Продолжительность: 01:28:49--Перевод : Одноголосый закадровый zamez
Cубтитры: русские (ЕкатеринаСир (Ышка)), английские SDH
Оригинальная аудиодорожка: английский--Режиссер: Кевин Аш / Kevin Asch
В ролях: Джесси Айзенберг, Джастин Барта, Дэнни А. Абекейзер, Эри Грейнор, Джейсон Фучс, Кью-Тип, Берн Коэн, Марк Иванир, Чарли Хьюсон, Элизабет Марвел--Описание: Сэм Голд, молодой хасид из ортодоксальной общины Бруклина, неохотно идет по пути, который избрала для него семья. Его очаровательный сосед, Йосеф Циммерман, понимает чувства Сэма и предлагает ему сотрудничать в транспортировке «лекарства» с израильскими дилерами и его подружкой Рэйчел. Сэм быстро демонстрирует свои деловые умения новым хозяевам, и они берут его под свое крыло. Через какое-то время двойная жизнь Сэма приводит его к необходимости сделать очень серьезный и страшный выбор.--imdb | kinopoisk | Сэмпл--Тип релиза: BDRemux 1080p [Holy Rollers 2010 1080p Blu-ray Remux AVC DD 5.1 - KRaLiMaRKo]
Контейнер: MKV
Видео: MPEG-4 AVC / 19987 kbps / 1920x1080 / 23,976 fps / 16:9 / High Profile 4.1
Аудио 1: AC3 / 5.1 / 48 kHz / 448 kbps / 16 bits |VO|
Аудио 2: AC3 / 5.1 / 48 kHz / 448 kbps / 16 bits |original|
Формат субтитров: softsub [SRT]

MediaInfo

Общее
Уникальный идентификатор : 191639443897174834890309726616358636323 (0x902C6A13053AA93BBB15E819BE724B23)
Полное имя : G:\HD\Святые роллеры.2010.Blu-Ray.Remux.(1080p).mkv
Формат : Matroska
Версия формата : Version 2
Размер файла : 13,0 Гбайт
Продолжительность : 1 ч. 28 м.
Режим общего битрейта : Переменный
Общий поток : 20,9 Мбит/сек
Дата кодирования : UTC 2013-02-24 15:17:24
Программа кодирования : mkvmerge v5.8.0 ('No Sleep / Pillow') built on Sep 2 2012 15:37:04
Библиотека кодирования : libebml v1.2.3 + libmatroska v1.3.0
Видео
Идентификатор : 1
Формат : AVC
Формат/Информация : Advanced Video Codec
Профиль формата : High@L4.1
Параметр CABAC формата : Да
Параметр ReFrames формата : 4 кадра
Идентификатор кодека : V_MPEG4/ISO/AVC
Продолжительность : 1 ч. 28 м.
Вид битрейта : Переменный
Битрейт : 19,6 Мбит/сек
Максимальный битрейт : 35,0 Мбит/сек
Ширина : 1920 пикселей
Высота : 1080 пикселей
Соотношение сторон : 16:9
Режим частоты кадров : Постоянный
Частота кадров : 23,976 кадра/сек
Стандарт вещания : NTSC
Цветовое пространство : YUV
Субдискретизация насыщенности : 4:2:0
Битовая глубина : 8 бит
Тип развёртки : Прогрессивная
Бит/(Пиксели*Кадры) : 0.394
Размер потока : 12,1 Гбайт (94%)
Default : Да
Forced : Нет
Основные цвета : BT.709
Характеристики трансфера : BT.709
Коэффициенты матрицы : BT.709
Аудио #1
Идентификатор : 2
Формат : AC-3
Формат/Информация : Audio Coding 3
Расширение режима : CM (complete main)
Параметр Endianness формата : Big
Идентификатор кодека : A_AC3
Продолжительность : 1 ч. 28 м.
Вид битрейта : Постоянный
Битрейт : 448 Кбит/сек
Каналы : 6 каналов
Расположение каналов : Front: L C R, Side: L R, LFE
Частота : 48,0 КГц
Битовая глубина : 16 бит
Метод сжатия : С потерями
Размер потока : 285 Мбайт (2%)
Заголовок : VO, zamez
Язык : Russian
Default : Да
Forced : Нет
Аудио #2
Идентификатор : 3
Формат : AC-3
Формат/Информация : Audio Coding 3
Расширение режима : CM (complete main)
Параметр Endianness формата : Big
Идентификатор кодека : A_AC3
Продолжительность : 1 ч. 28 м.
Вид битрейта : Постоянный
Битрейт : 448 Кбит/сек
Каналы : 6 каналов
Расположение каналов : Front: L C R, Side: L R, LFE
Частота : 48,0 КГц
Битовая глубина : 16 бит
Метод сжатия : С потерями
Размер потока : 285 Мбайт (2%)
Язык : English
Default : Нет
Forced : Нет
Текст #1
Идентификатор : 4
Формат : UTF-8
Идентификатор кодека : S_TEXT/UTF8
Идентификатор кодека/Информация : UTF-8 Plain Text
Заголовок : ЕкатеринаСир (Ышка)
Язык : Russian
Default : Нет
Forced : Нет
Текст #2
Идентификатор : 5
Формат : UTF-8
Идентификатор кодека : S_TEXT/UTF8
Идентификатор кодека/Информация : UTF-8 Plain Text
Заголовок : SDH
Язык : English
Default : Нет
Forced : Нет
Меню
00:00:00.000 : en:00:00:00.000
00:05:03.929 : en:00:05:03.929
00:14:30.536 : en:00:14:30.536
00:21:34.585 : en:00:21:34.585
00:27:30.732 : en:00:27:30.732
00:40:11.117 : en:00:40:11.117
00:47:14.331 : en:00:47:14.331
00:52:35.861 : en:00:52:35.861
01:00:20.909 : en:01:00:20.909
01:07:06.856 : en:01:07:06.856
01:15:01.622 : en:01:15:01.622
01:21:55.869 : en:01:21:55.869

Скриншоты


[Цитировать]



Показать сообщения:    

Текущее время: 08-Дек 07:07

Часовой пояс: UTC + 3


Вы не можете начинать темы
Вы не можете отвечать на сообщения
Вы не можете редактировать свои сообщения
Вы не можете удалять свои сообщения
Вы не можете голосовать в опросах
Вы не можете прикреплять файлы к сообщениям
Вы не можете скачивать файлы

!ВНИМАНИЕ!
Сайт не предоставляет электронные версии произведений, а занимается лишь коллекционированием и каталогизацией ссылок, присылаемых и публикуемых на форуме нашими читателями. Если вы являетесь правообладателем какого-либо представленного материала и не желаете, чтобы ссылка на него находилась в нашем каталоге, свяжитесь с нами, и мы незамедлительно удалим ее. Файлы для обмена на трекере предоставлены пользователями сайта, и администрация не несет ответственности за их содержание. Просьба не заливать файлы, защищенные авторскими правами, а также файлы нелегального содержания!