[ Сегодня идет свободное скачивание без начисления Download ]


Статистика раздачи
Нет
 
   
 
Top  
 
 
Укрытие / Hideaways

-
-Страна: Ирландия
Студия: Film i V?st, Fid?lit? Productions, Filmgate Films, Octagon Films
Жанр: фэнтези
Год выпуска: 2011
Продолжительность: 01:32:53--Перевод: Профессиональный (многоголосый закадровый) R5
Cубтитры: нет
Оригинальная аудиодорожка: английский--Режиссер: Аньес Мерле / Agn?s Merlet
В ролях: Рейчел Херд-Вуд, Гарри Тредэвэй, Томас Броди Сэнгстер, Сьюзэн Линч, Стюарт Грэхэм, Кейт О’Тул, Джеймс Уилсон, Дьярмуид О’Двайр, Крэйг Коннолли, Лесли Конрой, Исаак О’Салливан, Каллум Малони, Том Коллинз, Ниам Шоу--Описание: Джеймс Фурлонг — наследник древнего рода, все представители которого обладали необыкновенными способностями. К тому времени, когда Джеймсу исполняется 10 лет, он уже знает, что он — последний в роду. Его эксперименты с собственным даром окончились трагически для всех остальных Фурлонгов. Напуганный до смерти, он старается понять, что за уникальный дар передан ему в качестве единственного наследства его рода. В ужасе от своих смертельных для окружающих способностей, Джеймс скрывается в лесу, надеясь, никогда в жизни больше не встречать людей. Но однажды его многолетняя добровольная ссылка в глухих лесах прерывается появлением странной девушки Мэй, которая вовсе не боится полудикого незнакомца.--imdb | kinopoisk | Сэмпл--Тип релиза: BDRemux 1080p [Hideaways.Die.Macht.der.Liebe.2011.DUAL.COMPLETE.BLURAY-iFPD]
Контейнер: MKV
Видео: MPEG-4 AVC / 24966 kbps / 1920x1080 / 23,976 fps / 16:9 / High Profile 4.1
Аудио 1: AC3 / 2.0 / 48 kHz / 224 kbps / 16 bits |MVO, R5|
Аудио 2: DTS-HD Master Audio / 5.1 / 48 kHz / 2039 kbps / 16 bits (DTS Core: 5.1 / 48 kHz / 1510 kbps / 16 bits) |original|

MediaInfo

General
Unique ID : 217460200051057025116594450741445033294 (0xA3994FA430694A439C3D221C683C7D4E)
Complete name : E:\Torrent\Hideaways(2011)BDRip.mkv
Format : Matroska
Format version : Version 2
File size : 7.90 GiB
Duration : 1h 32mn
Overall bit rate : 12.2 Mbps
Encoded date : UTC 2012-11-27 15:32:36
Writing application : mkvmerge v5.8.0 ('No Sleep / Pillow') built on Sep 2 2012 15:37:04
Writing library : libebml v1.2.3 + libmatroska v1.3.0
Video
ID : 1
Format : AVC
Format/Info : Advanced Video Codec
Format profile : High@L4.1
Format settings, CABAC : Yes
Format settings, ReFrames : 10 frames
Codec ID : V_MPEG4/ISO/AVC
Duration : 1h 32mn
Bit rate : 10.5 Mbps
Width : 1 280 pixels
Height : 544 pixels
Display aspect ratio : 2.35:1
Frame rate mode : Constant
Frame rate : 23.976 fps
Color space : YUV
Chroma subsampling : 4:2:0
Bit depth : 8 bits
Scan type : Progressive
Bits/(Pixel*Frame) : 0.629
Stream size : 6.64 GiB (84%)
Writing library : x264 core 129 r2230+696+36 4446aa2 tMod+MixAQ [8-bit@4:2:0 X86_64]
Encoding settings : cabac=1 / ref=10 / deblock=1:-3:-3 / analyse=0x3:0x113 / me=umh / subme=10 / psy=1 / fade_compensate=0.00 / psy_rd=0.85:0.15 / mixed_ref=1 / me_range=48 / chroma_me=1 / trellis=2 / 8x8dct=1 / cqm=0 / deadzone=21,11 / fast_pskip=0 / chroma_qp_offset=1 / threads=6 / lookahead_threads=1 / sliced_threads=0 / nr=0 / decimate=0 / interlaced=0 / bluray_compat=0 / constrained_intra=0 / fgo=0 / bframes=11 / b_pyramid=2 / b_adapt=2 / b_bias=0 / direct=3 / weightb=1 / open_gop=0 / weightp=2 / keyint=240 / keyint_min=23 / scenecut=40 / intra_refresh=0 / rc=2pass / mbtree=0 / bitrate=10505 / ratetol=1.0 / qcomp=0.75 / qpmin=0 / qpmax=69 / qpstep=4 / cplxblur=20.0 / qblur=0.5 / ip_ratio=1.35 / pb_ratio=1.25 / aq=2 / aq-strength=0.80 / aq-sensitivity=10.00 / aq-ifactor=1.00 / aq-pfactor=1.00 / aq-bfactor=1.00 / aq2=0
Language : English
Default : Yes
Forced : No
Color primaries : BT.709
Transfer characteristics : BT.709
Matrix coefficients : BT.709
Audio #1
ID : 2
Format : AC-3
Format/Info : Audio Coding 3
Mode extension : CM (complete main)
Format settings, Endianness : Big
Codec ID : A_AC3
Duration : 1h 32mn
Bit rate mode : Constant
Bit rate : 192 Kbps
Channel(s) : 2 channels
Channel positions : Front: L R
Sampling rate : 48.0 KHz
Bit depth : 16 bits
Compression mode : Lossy
Stream size : 128 MiB (2%)
Language : Russian
Default : Yes
Forced : No
Audio #2
ID : 3
Format : DTS
Format/Info : Digital Theater Systems
Mode : 16
Format settings, Endianness : Big
Codec ID : A_DTS
Duration : 1h 32mn
Bit rate mode : Constant
Bit rate : 1 509 Kbps
Channel(s) : 6 channels
Channel positions : Front: L C R, Side: L R, LFE
Sampling rate : 48.0 KHz
Bit depth : 24 bits
Compression mode : Lossy
Stream size : 1 003 MiB (12%)
Language : English
Default : No
Forced : No
Menu
00:00:00.000 : en:00:00:00.000
00:08:18.623 : en:00:08:18.623
00:17:25.002 : en:00:17:25.002
00:27:20.597 : en:00:27:20.597
00:37:55.231 : en:00:37:55.231
00:47:23.132 : en:00:47:23.132
00:58:15.701 : en:00:58:15.701
01:07:57.865 : en:01:07:57.865
01:16:43.933 : en:01:16:43.933
01:28:42.359 : en:01:28:42.359

Скриншоты




Последний раз редактировалось: ExTriMoo (2013-03-23 13:03), всего редактировалось 1 раз

[Цитировать]



Показать сообщения:    

Текущее время: 10-Дек 10:00

Часовой пояс: UTC + 3


Вы не можете начинать темы
Вы не можете отвечать на сообщения
Вы не можете редактировать свои сообщения
Вы не можете удалять свои сообщения
Вы не можете голосовать в опросах
Вы не можете прикреплять файлы к сообщениям
Вы не можете скачивать файлы

!ВНИМАНИЕ!
Сайт не предоставляет электронные версии произведений, а занимается лишь коллекционированием и каталогизацией ссылок, присылаемых и публикуемых на форуме нашими читателями. Если вы являетесь правообладателем какого-либо представленного материала и не желаете, чтобы ссылка на него находилась в нашем каталоге, свяжитесь с нами, и мы незамедлительно удалим ее. Файлы для обмена на трекере предоставлены пользователями сайта, и администрация не несет ответственности за их содержание. Просьба не заливать файлы, защищенные авторскими правами, а также файлы нелегального содержания!