[ Сегодня идет свободное скачивание без начисления Download ]


Статистика раздачи
Нет
 
   
 
Top  
 
 
Области тьмы / Limitless [Unrated Extended Cut]- Страна: США
Жанр: Фантастика, триллер, детектив
Год выпуска: 2011
Продолжительность: 01:45:33-Перевод: Профессиональный (полное дублирование)
Оригинальная аудиодорожка: Английская-Режиссер: Нил Бёргер / Neil Burger-В ролях: Брэдли Купер, Роберт Де Ниро, Эбби Корниш, Эндрю Ховард, Анна Фрил, Джонни Витуорт, Томас Арана, Роберт Джон Бёрк, Даррен Голдштейн, Нед Эйзенберг-Описание: Нью-йоркский писатель Эдди, желая преодолеть чёрную полосу в жизни, принимает засекреченный препарат под названием NZT. Таблетка выводит мозг парня на работу в нереальной мощности. Этот творческий наркотик меняет всю жизнь Эдди, за короткий срок он зарабатывает кучу денег, но скоро начинает страдать от зловещих побочных эффектов препарата. А когда пытается найти других NZT-гениев, чтобы понять, как можно справиться с этим пристрастием, он узнает страшную правду…-[kp]462606[/kp] [imdb]tt1219289[/imdb]-Тип релиза: BDRemux
Контейнер: MKV
Видео: MPEG-4 AVC / 33694 kbps / 1080p / 23,976 fps / 16:9 / High Profile 4.1
Аудио 1: Русский дубляж / DTS-HD MA / 5.1 / 48 kHz / 4009 kbps / 24-bit (DTS Core: 5.1 / 48 kHz / 1509 kbps / 24-bit)
Аудио 2: Английский / DTS-HD MA / 5.1 / 48 kHz / 2854 kbps / 24-bit (DTS Core: 5.1 / 48 kHz / 1509 kbps / 24-bit)
Аудио 3: Английский / Dolby Digital / 2.0 / 48 kHz / 192 kbps (коменты)
Cубтитры 1: Русские (F-JAY)
Cубтитры 2: Английские SDH
Cубтитры 3: Английские SDH (pgs)
Чаптеры: есть-

MediaInfo

Complete name                    : Limitless.2011.Blu-ray.US.Unrated.1080p.AVC.Rus.Eng.mkv
Format                           : Matroska
File size                        : 29.9 GiB
Duration                         : 1h 45mn
Overall bit rate                 : 40.6 Mbps
Movie name                       : HANSMER
Encoded date                     : UTC 2011-07-18 07:40:09
Writing application              : mkvmerge v4.9.1 ('Ich will') сборка от Jul 11 2011 23:53:15
Writing library                  : libebml v1.2.1 + libmatroska v1.1.1
Cover                            : Yes
Video
ID                               : 1
Format                           : AVC
Format/Info                      : Advanced Video Codec
Format profile                   : [email protected]
Format settings, CABAC           : Yes
Format settings, ReFrames        : 4 frames
Format settings, GOP             : M=3, N=25
Muxing mode                      : Container [email protected]
Codec ID                         : V_MPEG4/ISO/AVC
Duration                         : 1h 45mn
Bit rate mode                    : Variable
Bit rate                         : 36.4 Mbps
Maximum bit rate                 : 36.0 Mbps
Width                            : 1 920 pixels
Height                           : 1 080 pixels
Display aspect ratio             : 16:9
Frame rate                       : 23.976 fps
Color space                      : YUV
Chroma subsampling               : 4:2:0
Bit depth                        : 8 bits
Scan type                        : Progressive
Bits/(Pixel*Frame)               : 0.733
Stream size                      : 26.9 GiB (90%)
Title                            : 33694 kbps
Language                         : English
Audio #1
ID                               : 2
Format                           : DTS
Format/Info                      : Digital Theater Systems
Format profile                   : MA / Core
Codec ID                         : A_DTS
Duration                         : 1h 45mn
Bit rate mode                    : Variable
Bit rate                         : 1 561 Kbps / 1 510 Kbps
Channel(s)                       : 6 channels
Channel positions                : Front: L C R, Side: L R, LFE
Sampling rate                    : 48.0 KHz
Bit depth                        : 24 bits
Compression mode                 : Lossless / Lossy
Title                            : DTS-HD MA 5.1 @ 4009 kbps
Language                         : Russian
Audio #2
ID                               : 3
Format                           : DTS
Format/Info                      : Digital Theater Systems
Format profile                   : MA / Core
Codec ID                         : A_DTS
Duration                         : 1h 45mn
Bit rate mode                    : Variable
Bit rate                         : 1 576 Kbps / 1 510 Kbps
Channel(s)                       : 6 channels
Channel positions                : Front: L C R, Side: L R, LFE
Sampling rate                    : 48.0 KHz
Bit depth                        : 24 bits
Compression mode                 : Lossless / Lossy
Title                            : DTS-HD MA 5.1 @ 2854 kbps
Language                         : English
Audio #3
ID                               : 4
Format                           : AC-3
Format/Info                      : Audio Coding 3
Mode extension                   : CM (complete main)
Codec ID                         : A_AC3
Duration                         : 1h 45mn
Bit rate mode                    : Constant
Bit rate                         : 192 Kbps
Channel(s)                       : 2 channels
Channel positions                : Front: L R
Sampling rate                    : 48.0 KHz
Bit depth                        : 16 bits
Compression mode                 : Lossy
Stream size                      : 145 MiB (0%)
Title                            : Commentary
Language                         : English
Text #1
ID                               : 5
Format                           : UTF-8
Codec ID                         : S_TEXT/UTF8
Codec ID/Info                    : UTF-8 Plain Text
Language                         : Russian
Text #2
ID                               : 6
Format                           : UTF-8
Codec ID                         : S_TEXT/UTF8
Codec ID/Info                    : UTF-8 Plain Text
Language                         : English
Text #3
ID                               : 7
Format                           : PGS
Codec ID                         : S_HDMV/PGS
Codec ID/Info                    : The same subtitle format used on BDs/HD-DVDs
Title                            : PGS
Language                         : English
Menu
00:00:00.000                     : en:00:00:00.000
00:03:49.104                     : en:00:03:49.104
00:06:55.915                     : en:00:06:55.915
00:11:05.707                     : en:00:11:05.707
00:16:28.362                     : en:00:16:28.362
00:20:40.072                     : en:00:20:40.072
00:24:20.834                     : en:00:24:20.834
00:28:55.859                     : en:00:28:55.859
00:34:09.172                     : en:00:34:09.172
00:38:20.173                     : en:00:38:20.173
00:42:26.419                     : en:00:42:26.419
00:47:03.821                     : en:00:47:03.821
00:51:24.248                     : en:00:51:24.248
00:54:45.532                     : en:00:54:45.532
00:59:36.948                     : en:00:59:36.948
01:05:59.664                     : en:01:05:59.664
01:09:07.935                     : en:01:09:07.935
01:12:11.952                     : en:01:12:11.952
01:15:12.299                     : en:01:15:12.299
01:18:52.561                     : en:01:18:52.561
01:22:20.352                     : en:01:22:20.352
01:27:53.643                     : en:01:27:53.643
01:32:29.961                     : en:01:32:29.961
01:39:01.644                     : en:01:39:01.644

[Цитировать]



Показать сообщения:    

Текущее время: 06-Дек 11:16

Часовой пояс: UTC + 3


Вы не можете начинать темы
Вы не можете отвечать на сообщения
Вы не можете редактировать свои сообщения
Вы не можете удалять свои сообщения
Вы не можете голосовать в опросах
Вы не можете прикреплять файлы к сообщениям
Вы не можете скачивать файлы

!ВНИМАНИЕ!
Сайт не предоставляет электронные версии произведений, а занимается лишь коллекционированием и каталогизацией ссылок, присылаемых и публикуемых на форуме нашими читателями. Если вы являетесь правообладателем какого-либо представленного материала и не желаете, чтобы ссылка на него находилась в нашем каталоге, свяжитесь с нами, и мы незамедлительно удалим ее. Файлы для обмена на трекере предоставлены пользователями сайта, и администрация не несет ответственности за их содержание. Просьба не заливать файлы, защищенные авторскими правами, а также файлы нелегального содержания!