[ Сегодня идет свободное скачивание без начисления Download ]


Статистика раздачи
Нет
 
   
 
Top  
 
 
Суши гёл / Sushi Girl
Страна: США
Жанр: триллер, криминал
Год выпуска: 2012
Продолжительность: 01:38:58
Перевод: Профессиональный (дублированный)
Оригинальная аудиодорожка: английский
Cубтитры: английские (полные)-Режиссер: Керн Сэкстон / Kern Saxton
В ролях: Тони Тодд (Duke), Марк Хэмилл (Crow), Энди МакКензи (Max), Ноа Хэтэуэй (Fish), Джеймс Дювал (Francis), Кортни Палм (Sushi Girl), Сонни Чиба (Sushi Chef), Давид Дастмалчян (Nelson), Джефф Фэйи (Morris), Дэнни Трехо (Schlomo), Майкл Бин (Mike), Дестин Пфафф (Jude), Тед Страйкер (Ramone), Сайрус Александр (Martin), Дэвид Рейнольдс (Henchman)-Описание: Налетчик по кличке Фиш провел шесть лет в тюрьме. Все эти шесть лет он молчал о совершенном грабеже и своих четырех подельниках. У ворот тюрьмы, после освобождения, его встречает машина и отвозит в место, где собираются все его бывшие друзья, участники громкого ограбления. На столе, в виде угощения, лежит молодая, обнаженная и красивая девушка с разнообразными видами суши на теле. Девушка кажется полностью безмолвной, обученной молчать и не реагировать на то, что происходит вокруг. Даже если будет опасно. Матерые преступники начинают выяснять меж собой, куда после ограбления пропали бриллианты на несколько миллионов долларов.-[kp]502256[/kp] [imdb]tt1606339[/imdb]
СЭМПЛ
Тип релиза: BDRip-AVC
Исходник: Sushi.Girl.2012.BDRemux.1080p.HDTracker
Контейнер: MKV
Видео: 1152x482p / 23.976 fps / 2.40:1 / High Profile 4.1 / AVC / ~ 2520 Kbps
Аудио 1: AC3 / 192 Kbps / 2.0 / 48 kHz / Russian / Dub
Аудио 2: AC3 / 448 Kbps / 5.1 / 48 kHz / English / original
Формат субтитров: softsub (SRT)-

MediaInfo / x264 log

General
Complete name : Sushi.Girl.2012.BDRip-AVC.Dub.mkv
Format : Matroska
Format version : Version 2
File size : 2.18 GiB
Duration : 1h 38mn
Overall bit rate : 3 156 Kbps
Encoded date : UTC 2013-03-17 19:46:07
Writing application : mkvmerge v5.4.0 ('Piper') built on Mar 10 2012 13:34:39
Writing library : libebml v1.2.3 + libmatroska v1.3.0
Video
ID : 1
Format : AVC
Format/Info : Advanced Video Codec
Format profile : [email protected]
Format settings, CABAC : Yes
Format settings, ReFrames : 12 frames
Codec ID : V_MPEG4/ISO/AVC
Duration : 1h 38mn
Bit rate : 2 520 Kbps
Width : 1 152 pixels
Height : 482 pixels
Display aspect ratio : 2.40:1
Frame rate : 23.976 fps
Color space : YUV
Chroma subsampling : 4:2:0
Bit depth : 8 bits
Scan type : Progressive
Bits/(Pixel*Frame) : 0.189
Stream size : 1.70 GiB (78%)
Title : Sushi Girl 2012
Writing library : x264 core 122 r2184 5c85e0a
Encoding settings : cabac=1 / ref=12 / deblock=1:-3:-3 / analyse=0x3:0x113 / me=umh / subme=9 / psy=1 / psy_rd=1.10:0.00 / mixed_ref=1 / me_range=24 / chroma_me=1 / trellis=2 / 8x8dct=1 / cqm=0 / deadzone=21,11 / fast_pskip=1 / chroma_qp_offset=-2 / threads=6 / sliced_threads=0 / nr=0 / decimate=1 / interlaced=0 / bluray_compat=0 / constrained_intra=0 / bframes=11 / b_pyramid=2 / b_adapt=2 / b_bias=0 / direct=3 / weightb=1 / open_gop=0 / weightp=2 / keyint=250 / keyint_min=23 / scenecut=40 / intra_refresh=0 / rc_lookahead=60 / rc=2pass / mbtree=1 / bitrate=2520 / ratetol=1.0 / qcomp=0.60 / qpmin=0 / qpmax=69 / qpstep=4 / cplxblur=20.0 / qblur=0.5 / ip_ratio=1.40 / aq=1:0.90
Default : Yes
Forced : No
Audio #1
ID : 2
Format : AC-3
Format/Info : Audio Coding 3
Mode extension : CM (complete main)
Format settings, Endianness : Big
Codec ID : A_AC3
Duration : 1h 38mn
Bit rate mode : Constant
Bit rate : 192 Kbps
Channel(s) : 2 channels
Channel positions : Front: L R
Sampling rate : 48.0 KHz
Bit depth : 16 bits
Compression mode : Lossy
Stream size : 136 MiB (6%)
Title : RUS AC3 192 Kbps 2ch Dub
Language : Russian
Default : Yes
Forced : No
Audio #2
ID : 3
Format : AC-3
Format/Info : Audio Coding 3
Mode extension : CM (complete main)
Format settings, Endianness : Big
Codec ID : A_AC3
Duration : 1h 38mn
Bit rate mode : Constant
Bit rate : 448 Kbps
Channel(s) : 6 channels
Channel positions : Front: L C R, Side: L R, LFE
Sampling rate : 48.0 KHz
Bit depth : 16 bits
Compression mode : Lossy
Stream size : 317 MiB (14%)
Title : ENG AC3 448 Kbps 6ch original
Language : English
Default : No
Forced : No
Text
ID : 4
Format : UTF-8
Codec ID : S_TEXT/UTF8
Codec ID/Info : UTF-8 Plain Text
Title : ENG Subtitles Full
Language : English
Default : No
Forced : No
Menu
00:00:00.000 : :Chapter 01
00:05:53.185 : :Chapter 02
00:13:13.167 : :Chapter 03
00:26:23.748 : :Chapter 04
00:32:50.050 : :Chapter 05
00:41:18.851 : :Chapter 06
00:49:26.505 : :Chapter 07
00:56:04.485 : :Chapter 08
01:03:03.237 : :Chapter 09
01:10:23.594 : :Chapter 10
01:21:53.073 : :Chapter 11
01:32:07.188 : :Chapter 12-x264 [info]: frame I:1179 Avg QP:14.14 size: 63881
x264 [info]: frame P:25905 Avg QP:17.29 size: 23293
x264 [info]: frame B:115274 Avg QP:20.20 size: 10298
x264 [info]: consecutive B-frames: 1.4% 1.1% 3.7% 9.5% 17.2% 42.5% 9.5% 2.1% 4.1% 2.4% 2.4% 3.9%

Скриншот с названием

Скриншоты



[Цитировать]

Топик был перенесен из форума Новинки кинопроката в форум Триллер
Henkok



Показать сообщения:    

Текущее время: 04-Дек 15:19

Часовой пояс: UTC + 3


Вы не можете начинать темы
Вы не можете отвечать на сообщения
Вы не можете редактировать свои сообщения
Вы не можете удалять свои сообщения
Вы не можете голосовать в опросах
Вы не можете прикреплять файлы к сообщениям
Вы не можете скачивать файлы

!ВНИМАНИЕ!
Сайт не предоставляет электронные версии произведений, а занимается лишь коллекционированием и каталогизацией ссылок, присылаемых и публикуемых на форуме нашими читателями. Если вы являетесь правообладателем какого-либо представленного материала и не желаете, чтобы ссылка на него находилась в нашем каталоге, свяжитесь с нами, и мы незамедлительно удалим ее. Файлы для обмена на трекере предоставлены пользователями сайта, и администрация не несет ответственности за их содержание. Просьба не заливать файлы, защищенные авторскими правами, а также файлы нелегального содержания!