[ Сегодня идет свободное скачивание без начисления Download ]


Статистика раздачи
Нет
 
   
 
Top  
 
 
[sh]Антология: Пункт Назначения 1,2,3,4,5 / Antology: Final Destination 1,2,3,4,5[/sh] [sh]Пункт Назначения / Final Destination[/sh][sh]«Are you ready to match wits with the Grim Reaper?»[/sh] -[sh]Год выпуска[/sh]: 2000
[sh]Страна[/sh]: США, Канада
[sh]Жанр[/sh]: Ужасы,триллер
[sh]Продолжительность[/sh]: 01:30:09
[sh]Перевод[/sh]: Профессиональный (полное дублирование) |Лицензия|
[sh]Субтитры[/sh]: русские (полные, внешние, srt)
[sh]Оригинальная дорожка[/sh]: Английский-[sh]Режиссёр[/sh]: Джеймс Вонг / James Wong
[sh]В ролях[/sh]: Девон Сава (Alex Browning), Эли Лартер (Clear Rivers), Керр Смит (Carter Horton), Кристен Клоук (Valerie Lewton), Дэниэл Робак (Agent Weine), Роджер Гуэнвёр Смит (Agent Schreck), Чэд Донелла (Tod Waggner), Шонн Уильям Скотт (Billy Hitchcock), Тони Тодд (Bludworth), Аманда Детмер (Terry Chaney), Брендан Фер (George Waggner), Форбс Энгус (Larry Murnau)-[sh]Описание[/sh]: Алекс летит развлекаться со всем классом в Париж на 10 дней. Отец говорит, что детство кончилось. В аэропорту он узнает, что время вылета совпадает с его днем рождения. Потом повинуясь плохому предчувствию Алекс покидает самолет вместе с еще семью людьми. И тут взрывается их самолет… Но позже оставшиеся в живых пассажиры гибнут один за другим. И Алекс понимает: смерть не обманешь — это только отсрочка…- -[sh]Качество[/sh]: HDRip
[sh]Формат[/sh]: AVI
[sh]Видео[/sh]: 656x368 (1.78:1), 23.976 fps, XviD MPEG-4 ~1018 kbps avg, 0.18 bit/pixel
[sh]Аудио[/sh]: 48 kHz, MPEG Layer 3, 2 ch, ~128.00 kbps avg | Rus
[sh]Аудио#2[/sh]: 48 kHz, MPEG Layer 3, 2 ch, ~128.00 kbps avg | Eng (Отдельно)
-

MI

Общее
Общее
Полное имя : D:\Торренты\Final Destination 1,2,3,4,5_R.G Torrents.Ru_Rutracker.org\Final Destination_2000_R.G Torrents.Ru_Rutracker.org\Final Destination_2000_R.G Torrents.Ru_Rutracker.org.avi
Формат : AVI
Формат/Информация : Audio Video Interleave
Размер файла : 745 Мбайт
Продолжительность : 1 ч. 30 м.
Общий поток : 1156 Кбит/сек
Программа кодирования : VirtualDubModRus 1.5.10.2 (build 2542/release)
Библиотека кодирования : VirtualDubMod build 2542/release
Видео
Идентификатор : 0
Формат : MPEG-4 Visual
Профиль формата : Advanced Simple@L5
Параметр BVOP формата : 2
Параметр QPel формата : Нет
Параметр GMC формата : Без точки перехода
Параметр матрицы формата : Выборочная
Режим смешивания : Сжатый битовый поток
Идентификатор кодека : XVID
Идентификатор кодека/Подсказка : XviD
Продолжительность : 1 ч. 30 м.
Битрейт : 1018 Кбит/сек
Ширина : 656 пикселей
Высота : 368 пикселей
Соотношение сторон : 16:9
Частота кадров : 23,976 кадра/сек
Цветовое пространство : YUV
Субдискретизация насыщенности : 4:2:0
Битовая глубина : 8 бит
Тип развёртки : Прогрессивная
Метод сжатия : С потерями
Бит/(Пиксели*Кадры) : 0.176
Размер потока : 657 Мбайт (88%)
Библиотека кодирования : XviD 64
Аудио
Идентификатор : 1
Формат : MPEG Audio
Версия формата : Version 1
Профиль формата : Layer 3
Режим : Joint stereo
Расширение режима : MS Stereo
Идентификатор кодека : 55
Идентификатор кодека/Подсказка : MP3
Продолжительность : 1 ч. 30 м.
Вид битрейта : Постоянный
Битрейт : 128 Кбит/сек
Каналы : 2 канала
Частота : 48,0 КГц
Метод сжатия : С потерями
Размер потока : 82,5 Мбайт (11%)
Выравнивание : Соединение по промежуткам
Продолжительность промежутка : 42 мс. (1,00 видеокадр)
Время предзагрузки промежутка : 504 мс.
Библиотека кодирования : LAME3.99
Настройки программы : -m j -V 4 -q 2 -lowpass 17 -b 128
[sh]Пункт Назначения 2 / Final Destination 2[/sh][sh]«Смерть нельзя обмануть дважды.....»[/sh] -[sh]Год выпуска[/sh]: 2003
[sh]Страна[/sh]: США, Канада
[sh]Жанр[/sh]: Ужасы, триллер
[sh]Продолжительность[/sh]: 01:32:48
[sh]Перевод[/sh]: Профессиональный (полное дублирование) |Лицензия|
[sh]Субтитры[/sh]: русские (полные, внешние, srt)
[sh]Оригинальная дорожка[/sh]: Английский-[sh]Режиссёр[/sh]: Дэвид Р. Эллис / David R. Ellis-[sh]В ролях[/sh]: А.Дж. Кук (Kimberly Corman), Майкл Лэндис (Thomas Burke), Эли Лартер (Clear Rivers), Джонатан Черри (Rory), Киган Коннор Трейси (Kat), Терренс «Т.К.» Карсон (Eugene Dix), Линда Бойд (Nora Carpenter), Джеймс Кирк (Tim Carpenter), Дэвид Петкау (Evan Lewis), Жустина Мачадо (Isabella Hudson), Сара Картер (Shaina), Алехандро Рэй (Dano)-[sh]Описание[/sh]: Решив провести уикэнд с друзьями подальше от дома, Кимберли Корман становится невольным свидетелем жуткой автокатастрофы! На скоростной магистрали грузовик теряет управление, а вместе с ним и груз, что приводит к серии столкновений автомобилей и множеству жертв, среди которых она сама. Секунду спустя Кимберли снова чувствует биение своего сердца: она жива и по-прежнему за рулем машины. Видение? А может быть, предупреждение? Однако теперь и Кимберли, и водители, чьи машины не смогли выехать из-за нее к своей смерти, обречены — старуха с косой отказывается вычеркивать их из своего списка…- -[sh]Качество[/sh]: HDRip
[sh]Формат[/sh]: AVI
[sh]Видео[/sh]: 656x368 (1.78:1), 23.976 fps, XviD MPEG-4 ~985 kbps avg, 0.17 bit/pixel
[sh]Аудио[/sh]: 48 kHz, MPEG Layer 3, 2 ch, ~128.00 kbps avg | Rus
[sh]Аудио#2[/sh]: 48 kHz, MPEG Layer 3, 2 ch, ~128.00 kbps avg | Eng (Отдельно)
-

MI

Общее
Полное имя : D:\Торренты\Final Destination 1,2,3,4,5_R.G Torrents.Ru_Rutracker.org\Final Destination 2_2003_R.G Torrents.Ru_Rutracker.org\Final Destination 2_2003_R.G Torrents.Ru_Rutracker.org.avi
Формат : AVI
Формат/Информация : Audio Video Interleave
Размер файла : 746 Мбайт
Продолжительность : 1 ч. 32 м.
Общий поток : 1123 Кбит/сек
Программа кодирования : VirtualDubModRus 1.5.10.2 (build 2542/release)
Библиотека кодирования : VirtualDubMod build 2542/release
Видео
Идентификатор : 0
Формат : MPEG-4 Visual
Профиль формата : Advanced Simple@L5
Параметр BVOP формата : 2
Параметр QPel формата : Нет
Параметр GMC формата : Без точки перехода
Параметр матрицы формата : Выборочная
Режим смешивания : Сжатый битовый поток
Идентификатор кодека : XVID
Идентификатор кодека/Подсказка : XviD
Продолжительность : 1 ч. 32 м.
Битрейт : 986 Кбит/сек
Ширина : 656 пикселей
Высота : 368 пикселей
Соотношение сторон : 16:9
Частота кадров : 23,976 кадра/сек
Цветовое пространство : YUV
Субдискретизация насыщенности : 4:2:0
Битовая глубина : 8 бит
Тип развёртки : Прогрессивная
Метод сжатия : С потерями
Бит/(Пиксели*Кадры) : 0.170
Размер потока : 655 Мбайт (88%)
Библиотека кодирования : XviD 64
Аудио
Идентификатор : 1
Формат : MPEG Audio
Версия формата : Version 1
Профиль формата : Layer 3
Режим : Joint stereo
Расширение режима : MS Stereo
Идентификатор кодека : 55
Идентификатор кодека/Подсказка : MP3
Продолжительность : 1 ч. 32 м.
Вид битрейта : Постоянный
Битрейт : 128 Кбит/сек
Каналы : 2 канала
Частота : 48,0 КГц
Метод сжатия : С потерями
Размер потока : 84,8 Мбайт (11%)
Выравнивание : Соединение по промежуткам
Продолжительность промежутка : 42 мс. (1,00 видеокадр)
Время предзагрузки промежутка : 504 мс.
Библиотека кодирования : LAME3.99
Настройки программы : -m j -V 4 -q 2 -lowpass 17 -b 128
[sh]Пункт Назначения 3 / Final Destination 3[/sh][sh]«Прокатись с ветерком... и со Смертью!»[/sh] -[sh]Год выпуска[/sh]: 2006
[sh]Страна[/sh]: США, Канада
[sh]Жанр[/sh]: Боевик, криминал
[sh]Продолжительность[/sh]: 01:38:01
[sh]Перевод[/sh]: Профессиональный (полное дублирование) |Лицензия|
[sh]Субтитры[/sh]: русские (полные, внешние, srt)
[sh]Оригинальная дорожка[/sh]: Английский-[sh]Режиссёр[/sh]: Джеймс Вонг / James Wong-[sh]В ролях[/sh]: Мэри Элизабет Уинстэд (Wendy Christensen), Райан Мерриман (Kevin Fischer), Крис Лемке (Ian McKinley), Алекс Джонсон (Erin), Сэм Истон (Frankie Cheeks), Джесси Мосс (Jason Wise), Джина Холден (Carrie Dreyer), Тексас Бэттл (Lewis Romero), Челан Симмонс (Ashley Freund), Кристал Лоу (Ashlyn Halperin), Аманда Крю (Julie Christensen), Мэгги Ма (Perry)-[sh]Описание[/sh]: Главная героиня фильма — старшеклассница Уэнди Крисченсен, у которой однажды возникло предчувствие, что она и ее друзья станут жертвами несчастного случая, который произойдет на «американских горках». Когда же самые страшные опасения Уэнди подтверждаются, то те, кто сумел все-таки обмануть смерть и выжить, оказываются вынужденными расплачиваться за то, что изменили свою судьбу…- -[sh]Качество[/sh]: HDRip
[sh]Формат[/sh]: AVI
[sh]Видео[/sh]: 656x368 (1.78:1), 23.976 fps, XviD MPEG-4 ~926 kbps avg, 0.16 bit/pixel
[sh]Аудио[/sh]: 48 kHz, MPEG Layer 3, 2 ch, ~128.00 kbps avg | Rus
[sh]Аудио#2[/sh]: 48 kHz, MPEG Layer 3, 2 ch, ~128.00 kbps avg | Eng (Отдельно)
-

MI

Общее
Полное имя : D:\Торренты\Final Destination 1,2,3,4,5_R.G Torrents.Ru_Rutracker.org\Final Destination 3_2006_R.G Torrents.Ru_Rutracker.org\Final Destination 3_2006_R.G Torrents.Ru_Rutracker.org.avi
Формат : AVI
Формат/Информация : Audio Video Interleave
Размер файла : 746 Мбайт
Продолжительность : 1 ч. 38 м.
Общий поток : 1064 Кбит/сек
Программа кодирования : VirtualDubModRus 1.5.10.2 (build 2542/release)
Библиотека кодирования : VirtualDubMod build 2542/release
Видео
Идентификатор : 0
Формат : MPEG-4 Visual
Профиль формата : Advanced Simple@L5
Параметр BVOP формата : 2
Параметр QPel формата : Нет
Параметр GMC формата : Без точки перехода
Параметр матрицы формата : Выборочная
Режим смешивания : Сжатый битовый поток
Идентификатор кодека : XVID
Идентификатор кодека/Подсказка : XviD
Продолжительность : 1 ч. 38 м.
Битрейт : 927 Кбит/сек
Ширина : 656 пикселей
Высота : 368 пикселей
Соотношение сторон : 16:9
Частота кадров : 23,976 кадра/сек
Цветовое пространство : YUV
Субдискретизация насыщенности : 4:2:0
Битовая глубина : 8 бит
Тип развёртки : Прогрессивная
Метод сжатия : С потерями
Бит/(Пиксели*Кадры) : 0.160
Размер потока : 650 Мбайт (87%)
Библиотека кодирования : XviD 64
Аудио
Идентификатор : 1
Формат : MPEG Audio
Версия формата : Version 1
Профиль формата : Layer 3
Режим : Joint stereo
Расширение режима : MS Stereo
Идентификатор кодека : 55
Идентификатор кодека/Подсказка : MP3
Продолжительность : 1 ч. 37 м.
Вид битрейта : Постоянный
Битрейт : 128 Кбит/сек
Каналы : 2 канала
Частота : 48,0 КГц
Метод сжатия : С потерями
Размер потока : 89,7 Мбайт (12%)
Выравнивание : Соединение по промежуткам
Продолжительность промежутка : 42 мс. (1,00 видеокадр)
Время предзагрузки промежутка : 504 мс.
Библиотека кодирования : LAME3.99
Настройки программы : -m j -V 4 -q 2 -lowpass 17 -b 128
[sh]Пункт Назначения 4 / Final Destination 4[/sh][sh]«Упокой их, Господи... По частям»[/sh] -[sh]Год выпуска[/sh]: 2009
[sh]Страна[/sh]: США
[sh]Жанр[/sh]: Ужасы, триллер
[sh]Продолжительность[/sh]: 01:21:46
[sh]Перевод[/sh]: Профессиональный (полное дублирование) |Лицензия|
[sh]Субтитры[/sh]: русские (полные, внешние, srt)
[sh]Оригинальная дорожка[/sh]: Английский-[sh]Режиссёр[/sh]: Дэвид Р. Эллис / David R. Ellis-[sh]В ролях[/sh]: Бобби Кампо (Nick O'Bannon), Шантель Ван Сантен (Lori Milligan), Ник Зано (Hunt Wynorski), Хейли Уэбб (Janet Cunningham), Майкелти Уильямсон (George Lanter), Криста Аллен (Samantha Lane - MILF), Эндрю Фисцелла (Andy Kewzer - Mechanic), Джастин Велборн (Carter Daniels - Racist), Стефани Онор (Nadia Monroy - Mechanic's GF), Лара Грис (Cynthia Daniels - Racist's Wife), Джексон Уолкер (Jonathan Grove - Cowboy), Фил Остин (Samantha's Husband)-[sh]Описание[/sh]: В ожидании начала гонок на автостраде МакКинли, Ник О’Беннон получает жуткое видение-предостережение о том, что случится катастрофа и обломки машин, полетевших в зрителей, и разрушившаяся трибуна убьют много людей, в том числе Ника и его друзей. Он очухивается, не в силах прийти в себя от ощущения полной реалистичности увиденного. Он паникует и едва успевает убедить компанию подростков уйти со стадиона. Вместе с ними оттуда уходят и несколько незнакомых им людей. Сразу после этого происходит авария, которую он видел в своём видении. Его кошмар становится явью. К несчастью для Ника и его друзей: Лори Миллиган, Джанет Каннингем и Ханта Винорски — это только начало, так как выжившие начинают умирать один за другим, причём даже ещё более ужасающими способами, чем те, которые им грозили вначале, Ник должен сообразить, как, обманув смерть однажды, теперь обманывать её всегда перед тем, как он тоже достигнет своего пункта назначения.- -[sh]Качество[/sh]: HDRip
[sh]Формат[/sh]: AVI
[sh]Видео[/sh]: 688x288 (2.39:1), 23.976 fps, XviD MPEG-4 ~1136 kbps avg, 0.24 bit/pixel
[sh]Аудио[/sh]: 48 kHz, MPEG Layer 3, 2 ch, ~128.00 kbps avg | Rus
[sh]Аудио#2[/sh]: 48 kHz, MPEG Layer 3, 2 ch, ~128.00 kbps avg | Eng (Отдельно)
-

MI

Формат : AVI
Формат/Информация : Audio Video Interleave
Размер файла : 668 Мбайт
Продолжительность : 1 ч. 21 м.
Общий поток : 1141 Кбит/сек
Программа кодирования : VirtualDubModRus 1.5.10.2 (build 2542/release)
Библиотека кодирования : VirtualDubMod build 2542/release
Видео
Идентификатор : 0
Формат : MPEG-4 Visual
Профиль формата : Advanced Simple@L5
Параметр BVOP формата : 2
Параметр QPel формата : Нет
Параметр GMC формата : Без точки перехода
Параметр матрицы формата : Выборочная
Режим смешивания : Сжатый битовый поток
Идентификатор кодека : XVID
Идентификатор кодека/Подсказка : XviD
Продолжительность : 1 ч. 21 м.
Битрейт : 1137 Кбит/сек
Ширина : 688 пикселей
Высота : 288 пикселей
Соотношение сторон : 2,40:1
Частота кадров : 23,976 кадра/сек
Цветовое пространство : YUV
Субдискретизация насыщенности : 4:2:0
Битовая глубина : 8 бит
Тип развёртки : Прогрессивная
Метод сжатия : С потерями
Бит/(Пиксели*Кадры) : 0.239
Размер потока : 665 Мбайт (100%)
Библиотека кодирования : XviD 64
Аудио
Идентификатор : 1
Формат : MPEG Audio
Версия формата : Version 1
Профиль формата : Layer 3
Режим : Joint stereo
Идентификатор кодека : 55
Идентификатор кодека/Подсказка : MP3
Продолжительность : 1 ч. 21 м.
Вид битрейта : Постоянный
Битрейт : 128 Кбит/сек
Каналы : 2 канала
Частота : 48,0 КГц
Метод сжатия : С потерями
Размер потока : 74,9 Мбайт (10%)
Выравнивание : Соединение по промежуткам
Продолжительность промежутка : 42 мс. (1,00 видеокадр)
Время предзагрузки промежутка : 504 мс.
Библиотека кодирования : LAME3.99
Настройки программы : -m j -V 4 -q 2 -lowpass 17 -b 128
[sh]Пункт назначения 5 / Final Destination 5[/sh][sh]«Опасность ещё не была столь близка»[/sh] -[sh]Год выпуска[/sh]: 2011
[sh]Страна[/sh]: США, Канада
[sh]Жанр[/sh]: Ужасы, триллер
[sh]Продолжительность[/sh]: 01:31:49
[sh]Перевод[/sh]: Профессиональный (полное дублирование) |Лицензия|
[sh]Субтитры[/sh]: русские (полные, внешние, srt)
[sh]Оригинальная дорожка[/sh]: Английский-[sh]Режиссёр[/sh]: Стивен Куэйл / Steven Quale-[sh]В ролях[/sh]: Николас Д’Агосто, Эмма Белл, Майлз Фишер, Эллен Ро, Жаклин МакИннес Вуд, П.Дж. Бирн, Арлен Эскарпета, Дэвид Кокнер, Кортни Б. Вэнс, Тони Тодд.-[sh]Описание[/sh]: У Сэма Лоутона происходит жуткое видение: подвесной мост, на котором он находится со своими друзьями, рушится, и многие люди, включая его самого, погибают. Сэм начинает паниковать и уговаривает своих друзей и ещё нескольких «счастливчиков» уйти с моста. И как раз вовремя: как и предвидел Сэм, мост рушится на их глазах и множество людей погибает. Однако Сэм и его девушка Молли понимают, что смерть дала им лишь отсрочку, так как выжившие начинают погибать один за другим. Он должен понять, как обманув смерть однажды, обмануть её ещё раз, прежде чем настанет его очередь.- -[sh]Качество[/sh]: HDRip
[sh]Формат[/sh]: AVI
[sh]Видео[/sh]: 688x288 (2.39:1), 23.976 fps, XviD MPEG-4 ~998 kbps avg, 0.21 bit/pixel
[sh]Аудио[/sh]: 48 kHz, MPEG Layer 3, 2 ch, ~128.00 kbps avg | Rus
[sh]Аудио#2[/sh]: 48 kHz, MPEG Layer 3, 2 ch, ~128.00 kbps avg | Eng (Отдельно)
-

MI

Общее
Полное имя : D:\Торренты\Final Destination 1,2,3,4,5_R.G Torrents.Ru_Rutracker.org\Final Destination 5_2011_R.G Torrents.Ru_Rutracker.org\Final Destination 5_2011_R.G Torrents.Ru_Rutracker.org.avi
Формат : AVI
Формат/Информация : Audio Video Interleave
Размер файла : 749 Мбайт
Продолжительность : 1 ч. 31 м.
Режим общего битрейта : Переменный
Общий поток : 1140 Кбит/сек
Программа кодирования : VirtualDubModRus 1.5.10.2 (build 2542/release)
Библиотека кодирования : VirtualDubMod build 2542/release
Видео
Идентификатор : 0
Формат : MPEG-4 Visual
Профиль формата : Advanced Simple@L5
Параметр BVOP формата : 2
Параметр QPel формата : Нет
Параметр GMC формата : Без точки перехода
Параметр матрицы формата : Выборочная
Режим смешивания : Сжатый битовый поток
Идентификатор кодека : XVID
Идентификатор кодека/Подсказка : XviD
Продолжительность : 1 ч. 31 м.
Битрейт : 999 Кбит/сек
Ширина : 688 пикселей
Высота : 288 пикселей
Соотношение сторон : 2,40:1
Частота кадров : 23,976 кадра/сек
Цветовое пространство : YUV
Субдискретизация насыщенности : 4:2:0
Битовая глубина : 8 бит
Тип развёртки : Прогрессивная
Метод сжатия : С потерями
Бит/(Пиксели*Кадры) : 0.210
Размер потока : 656 Мбайт (88%)
Библиотека кодирования : XviD 64
Аудио
Идентификатор : 1
Формат : MPEG Audio
Версия формата : Version 1
Профиль формата : Layer 3
Режим : Joint stereo
Расширение режима : MS Stereo
Идентификатор кодека : 55
Идентификатор кодека/Подсказка : MP3
Продолжительность : 1 ч. 31 м.
Вид битрейта : Переменный
Битрейт : 128 Кбит/сек
Каналы : 2 канала
Частота : 48,0 КГц
Метод сжатия : С потерями
Размер потока : 84,1 Мбайт (11%)
Выравнивание : Соединение по промежуткам
Продолжительность промежутка : 24 мс. (0,58 видеокадр)
Время предзагрузки промежутка : 486 мс.
Библиотека кодирования : LAME3.99
Настройки программы : -m j -V 4 -q 2 -lowpass 17 -b 128

[Цитировать]

[Цитировать]



Показать сообщения:    

Текущее время: 11-Дек 05:19

Часовой пояс: UTC + 3


Вы не можете начинать темы
Вы не можете отвечать на сообщения
Вы не можете редактировать свои сообщения
Вы не можете удалять свои сообщения
Вы не можете голосовать в опросах
Вы не можете прикреплять файлы к сообщениям
Вы не можете скачивать файлы

!ВНИМАНИЕ!
Сайт не предоставляет электронные версии произведений, а занимается лишь коллекционированием и каталогизацией ссылок, присылаемых и публикуемых на форуме нашими читателями. Если вы являетесь правообладателем какого-либо представленного материала и не желаете, чтобы ссылка на него находилась в нашем каталоге, свяжитесь с нами, и мы незамедлительно удалим ее. Файлы для обмена на трекере предоставлены пользователями сайта, и администрация не несет ответственности за их содержание. Просьба не заливать файлы, защищенные авторскими правами, а также файлы нелегального содержания!