[ Сегодня идет свободное скачивание без начисления Download ]


Статистика раздачи
Нет
 
   
 
Top  
 
 
-Неизбежность / Inescapable (2012) BDRip
«You can never escape your past.»
- Русское название: Неизбежность
Оригинальное название: Inescapable
Год выпуска: 2012
Производство: Канада, ЮАР / Killer Films
Жанр: Драма, Мелодрама, Детектив
Перевод: Одноголосый закадровый, любительский
Озвучка / Автор перевода: den904
Субтитры: Отсутствуют
Дата мировой премьеры: 11 сентября 2012
Режиссер: Руба Надда
Актеры: Александр Сиддиг, Джошуа Джексон, Мариса Томей, Одед Фер, Саад Сиддикуи, Фадия Надда, Джессика Энсти
Описание фильма:
Спустя годы, после того как он при подозрительных обстоятельствах покинул Дамаск, Адибу Абдель Кариму приходится столкнуться со своим прошлым, когда его дочь пропадает без вести.- -Продолжительность: 01:32:57
Качество видео: BDRip 720p
Видеокодек: MPEG-4 AVC/H.264
Битрейт видео: ~5226 Кбит/сек
Размер кадра: 1280x720
Аудио #1: Русский (Dolby AC3, 6 ch) 448 Кбит/сек
Аудио #2: Английский (DTS, 6 ch) 1510 Кбит/сек

MediaInfo:

Общее
Уникальный идентификатор         : 231777138814161762622998459545138820691 (0xAE5EA7388D3674078D4F21505CD0F653)
Полное имя                       : H:\Неизбежность.2012.L1.BDRip.720p.mkv
Формат                           : Matroska
Версия формата                   : Version 4 / Version 2
Размер файла                     : 4,66 Гбайт
Продолжительность                : 1 ч. 32 м.
Общий поток                      : 7173 Кбит/сек
Название фильма                  : Неизбежность.2012.L1.BDRip.720p
Дата кодирования                 : UTC 2013-03-23 10:38:22
Программа кодирования            : mkvmerge v6.1.0 ('Old Devil') built on Mar  2 2013 14:32:37
Библиотека кодирования           : libebml v1.3.0 + libmatroska v1.4.0
Видео
Идентификатор                    : 1
Формат                           : AVC
Формат/Информация                : Advanced Video Codec
Профиль формата                  : [url=mailto:High@L4.1]High@L4.1[/url]
Параметр CABAC формата           : Да
Параметр ReFrames формата        : 9 кадров
Идентификатор кодека             : V_MPEG4/ISO/AVC
Продолжительность                : 1 ч. 32 м.
Битрейт                          : 5226 Кбит/сек
Ширина                           : 1280 пикселей
Высота                           : 720 пикселей
Соотношение сторон               : 16:9
Частота кадров                   : 24,000 кадра/сек
Цветовое пространство            : YUV
Субдискретизация насыщенности    : 4:2:0
Битовая глубина                  : 8 бит
Тип развёртки                    : Прогрессивная
Бит/(Пиксели*Кадры)              : 0.236
Размер потока                    : 3,29 Гбайт (71%)
Заголовок                        : CheeSeHead@HDWind
Библиотека кодирования           : x264 core 129 r2245 bc13772
Настройки программы              : cabac=1 / ref=9 / deblock=1:-3:-3 / analyse=0x3:0x133 / me=umh / subme=11 / psy=1 / psy_rd=1.10:0.10 / mixed_ref=1 / me_range=32 / chroma_me=1 / trellis=2 / 8x8dct=1 / cqm=0 / deadzone=21,11 / fast_pskip=0 / chroma_qp_offset=-2 / threads=6 / lookahead_threads=1 / sliced_threads=0 / nr=0 / decimate=1 / interlaced=0 / bluray_compat=0 / constrained_intra=0 / bframes=8 / b_pyramid=2 / b_adapt=2 / b_bias=0 / direct=3 / weightb=1 / open_gop=0 / weightp=2 / keyint=250 / keyint_min=24 / scenecut=40 / intra_refresh=0 / rc_lookahead=40 / rc=2pass / mbtree=0 / bitrate=5226 / ratetol=1.0 / qcomp=0.70 / qpmin=0 / qpmax=69 / qpstep=4 / cplxblur=20.0 / qblur=0.5 / vbv_maxrate=40000 / vbv_bufsize=30000 / nal_hrd=none / ip_ratio=1.40 / pb_ratio=1.30 / aq=2:0.90
Язык                             : English
Default                          : Да
Forced                           : Нет
Аудио #1
Идентификатор                    : 2
Формат                           : AC-3
Формат/Информация                : Audio Coding 3
Расширение режима                : CM (complete main)
Идентификатор кодека             : A_AC3
Продолжительность                : 1 ч. 32 м.
Вид битрейта                     : Постоянный
Битрейт                          : 448 Кбит/сек
Каналы                           : 6 каналов
Расположение каналов             : Front: L C R, Side: L R, LFE
Частота                          : 48,0 КГц
Битовая глубина                  : 16 бит
Метод сжатия                     : С потерями
Размер потока                    : 298 Мбайт (6%)
Заголовок                        : [den904]
Язык                             : Russian
Default                          : Да
Forced                           : Нет
Аудио #2
Идентификатор                    : 3
Формат                           : DTS
Формат/Информация                : Digital Theater Systems
Идентификатор кодека             : A_DTS
Продолжительность                : 1 ч. 32 м.
Вид битрейта                     : Постоянный
Битрейт                          : 1510 Кбит/сек
Каналы                           : 6 каналов
Расположение каналов             : Front: L C R, Side: L R, LFE
Частота                          : 48,0 КГц
Битовая глубина                  : 24 бит
Метод сжатия                     : С потерями
Размер потока                    : 1004 Мбайт (21%)
Заголовок                        : DTS @ 1509 kbps
Язык                             : English
Default                          : Нет
Forced                           : Нет
Меню
00:00:00.000                     : en:00:00:00.000
00:01:54.000                     : en:00:01:54.000
00:09:27.000                     : en:00:09:27.000
00:18:03.500                     : en:00:18:03.500
00:26:32.500                     : en:00:26:32.500
00:36:16.000                     : en:00:36:16.000
00:46:05.500                     : en:00:46:05.500
00:56:39.500                     : en:00:56:39.500
01:07:55.500                     : en:01:07:55.500
01:15:53.500                     : en:01:15:53.500
01:26:25.500                     : en:01:26:25.500

x264:

x264 [info]: frame I:838 Avg QP:14.72 size:118609
x264 [info]: frame P:27705 Avg QP:17.07 size: 47588
x264 [info]: frame B:105283 Avg QP:19.21 size: 21051
x264 [info]: consecutive B-frames: 1.7% 1.9% 6.1% 18.6% 14.8% 45.8% 5.1% 1.6% 4.4%
Скриншоты:



Время раздачи: 16.30-23.00 до 5 скачавших

[Цитировать]

Топик был перенесен из форума Новинки кинопроката (HD Video) в форум Зарубежное кино (HD Video)
Bootch



Показать сообщения:    

Текущее время: 09-Дек 03:07

Часовой пояс: UTC + 3


Вы не можете начинать темы
Вы не можете отвечать на сообщения
Вы не можете редактировать свои сообщения
Вы не можете удалять свои сообщения
Вы не можете голосовать в опросах
Вы не можете прикреплять файлы к сообщениям
Вы не можете скачивать файлы

!ВНИМАНИЕ!
Сайт не предоставляет электронные версии произведений, а занимается лишь коллекционированием и каталогизацией ссылок, присылаемых и публикуемых на форуме нашими читателями. Если вы являетесь правообладателем какого-либо представленного материала и не желаете, чтобы ссылка на него находилась в нашем каталоге, свяжитесь с нами, и мы незамедлительно удалим ее. Файлы для обмена на трекере предоставлены пользователями сайта, и администрация не несет ответственности за их содержание. Просьба не заливать файлы, защищенные авторскими правами, а также файлы нелегального содержания!