[ Сегодня идет свободное скачивание без начисления Download ]


Статистика раздачи
Нет
 
   
 
Top  
 
 
Любовь / Amour«Испытание чувств на закате жизни» Страна: Франция, Австрия, Германия
Жанр: Драма, мелодрама
Год выпуска: 2012
Продолжительность: 02:07:08
Перевод: Профессиональный (многоголосый закадровый) R5
Cубтитры: русские, английские
Оригинальная аудиодорожка: французский
Режиссер: Михаэль Ханеке / Michael Haneke
В ролях: Жан-Луи Трентиньян, Эмманюэль Рива, Изабель Юппер, Александр Таро, Уильям Шимелл, Рамон Агирр, Рита Бланко, Кароль Франк, Динара Друкарова, Лорен Капеллуто и др...
Описание: Жорж и Анна прожили вместе всю жизнь, рука об руку, постоянно заботясь друг о друге. Сейчас им за восемьдесят. Анна заболевает и ее жизнь начинает постепенно угасать: сначала отключается память, потом отказывается подчиняться тело, наступает паралич. Жорж пытается нанять сиделок, но с горечью понимает, что не может требовать от них душевной теплоты и искренности чувств. Оставив преподавание в консерватории, он всецело посвящает себя заботам о жене. Мужчина не может представить любимую в доме престарелых, о котором настаивает их взрослая дочь, время от времени навещающая родителей. Эти визиты - настоящее испытание для семьи, жизнь которой, казалось бы, протекла в гармонии и любви...

Тип релиза: BDRip 1080p
Контейнер: MKV
Видео: MPEG-4 AVC Video, 1920 х 1036 (1,85:1), 23,976 кадра/сек, 14,0 Мбит/сек, 0.293 бит/пиксель
Аудио: Russian, Audio Coding 3, 48,0 КГц, 384 Кбит/сек, 5 каналов (Front: L C R, Side: L R)
Аудио 2: French, DTS, 48,0 КГц, 1509 Кбит/сек, 6 каналов (Front: L C R, Side: L R, LFE)

Информация

«Любовь» (фр. Amour) — французско-немецко-австрийский художественный фильм, драма режиссёра Михаэля Ханеке, премьера которой состоялась на 65-м Каннском кинофестивале, где лента получила главный приз — «Золотую пальмовую ветвь». В главных ролях, пожилых учителей музыки, задействованы Жан-Луи Трентиньян (не снимавшийся у Ханеке 14 лет) и Эммануэль Рива, во второстепенной роли их дочери Евы — Изабель Юппер.
Картина было крайне высоко оценена мировыми кинокритиками, повергнув в состояние шока не только их, но и простых зрителей. На 85-й церемонии вручения премии «Оскар» фильм победил в категории «Лучший фильм на иностранном языке» и получил номинации за лучший фильм года, режиссерскую работу и лучшую женскую роль. На родине большинства членов съёмочной группы «Любовь» отметили пятью главными статуэтками национальной премии «Сезар», включая за лучший фильм года.
Награды:
Оскар, 2013 год
Победитель (1):
Лучший фильм на иностранном языке — «Австрия»
Номинации (4):
Лучший фильм
Лучшая женская роль (Эмманюэль Рива)
Лучший режиссер (Михаэль Ханеке)
Лучший сценарий
Золотой глобус, 2013 год
Победитель (1):
Лучший фильм на иностранном языке
Британская академия, 2013 год
Победитель (2):
Лучшая женская роль (Эмманюэль Рива)
Лучший фильм на иностранном языке
Номинации (2):
Лучший режиссер (Михаэль Ханеке)
Лучший оригинальный сценарий
Сезар, 2013 год
Победитель (5):
Лучший фильм
Лучший актер (Жан-Луи Трентиньян)
Лучшая актриса (Эмманюэль Рива)
Лучший режиссер (Михаэль Ханеке)
Лучший сценарий
Номинации (5):
Лучшая актриса второго плана (Изабель Юппер)
Лучшая работа оператора
Лучший звук
Лучший монтаж
Лучшие декорации
Каннский кинофестиваль, 2012 год
Победитель (1):
Золотая пальмовая ветвь
Европейская киноакадемия, 2012 год
Победитель (4):
Лучший фильм
Лучшая мужская роль (Жан-Луи Трентиньян)
Лучшая женская роль (Эмманюэль Рива)
Лучший режиссер (Михаэль Ханеке)
Номинации (2):
Лучшая операторская работа (Дариус Хонджи)
Лучшая работа сценариста (Михаэль Ханеке)

MediaInfo

Общее
Уникальный идентификатор : 174621392999724655650134720874909354424 (0x835EDB627187382D966E61E4501549B8)
Полное имя : E:\torrent\Любовь 1080p.mkv
Формат : Matroska
Версия формата : Version 2
Размер файла : 14,4 Гбайт
Продолжительность : 2 ч. 7 м.
Общий поток : 16,2 Мбит/сек
Дата кодирования : UTC 2013-03-01 15:45:33
Программа кодирования : mkvmerge v5.8.0 ('No Sleep / Pillow') built on Sep 2 2012 15:37:04
Библиотека кодирования : libebml v1.2.3 + libmatroska v1.3.0
Видео
Идентификатор : 1
Формат : AVC
Формат/Информация : Advanced Video Codec
Профиль формата : [email protected]
Параметр CABAC формата : Да
Параметр ReFrames формата : 4 кадра
Идентификатор кодека : V_MPEG4/ISO/AVC
Продолжительность : 2 ч. 7 м.
Битрейт : 14,0 Мбит/сек
Ширина : 1920 пикселей
Высота : 1036 пикселей
Соотношение сторон : 1,85:1
Режим частоты кадров : Постоянный
Частота кадров : 23,976 кадра/сек
Цветовое пространство : YUV
Субдискретизация насыщенности : 4:2:0
Битовая глубина : 8 бит
Тип развёртки : Прогрессивная
Бит/(Пиксели*Кадры) : 0.293
Размер потока : 12,4 Гбайт (86%)
Заголовок : Любовь / Amour (2012) - Release for HDClub
Библиотека кодирования : x264 core 129 r2245 bc13772
Настройки программы : cabac=1 / ref=4 / deblock=1:-3:-3 / analyse=0x3:0x113 / me=umh / subme=11 / psy=1 / psy_rd=1.05:0.00 / mixed_ref=1 / me_range=32 / chroma_me=1 / trellis=2 / 8x8dct=1 / cqm=0 / deadzone=21,11 / fast_pskip=0 / chroma_qp_offset=-2 / threads=12 / lookahead_threads=2 / sliced_threads=0 / nr=0 / decimate=1 / interlaced=0 / bluray_compat=0 / constrained_intra=0 / bframes=8 / b_pyramid=2 / b_adapt=2 / b_bias=0 / direct=1 / weightb=1 / open_gop=0 / weightp=2 / keyint=240 / keyint_min=23 / scenecut=40 / intra_refresh=0 / rc=crf / mbtree=0 / crf=17.5 / qcomp=0.70 / qpmin=0 / qpmax=69 / qpstep=4 / ip_ratio=1.40 / pb_ratio=1.30 / aq=2:1.00
Язык : French
Default : Да
Forced : Нет
Аудио #1
Идентификатор : 2
Формат : AC-3
Формат/Информация : Audio Coding 3
Расширение режима : CM (complete main)
Параметр Endianness формата : Big
Идентификатор кодека : A_AC3
Продолжительность : 2 ч. 7 м.
Вид битрейта : Постоянный
Битрейт : 384 Кбит/сек
Каналы : 5 каналов
Расположение каналов : Front: L C R, Side: L R
Частота : 48,0 КГц
Битовая глубина : 16 бит
Метод сжатия : С потерями
Размер потока : 349 Мбайт (2%)
Заголовок : Многоголосый закадровый, R5, AC-3 384 Kbps 5/0
Язык : Russian
Default : Да
Forced : Нет
Аудио #2
Идентификатор : 3
Формат : DTS
Формат/Информация : Digital Theater Systems
Режим : 16
Параметр Endianness формата : Big
Идентификатор кодека : A_DTS
Продолжительность : 2 ч. 7 м.
Вид битрейта : Постоянный
Битрейт : 1509 Кбит/сек
Каналы : 6 каналов
Расположение каналов : Front: L C R, Side: L R, LFE
Частота : 48,0 КГц
Битовая глубина : 16 бит
Метод сжатия : С потерями
Задержка видео : 21 мс.
Размер потока : 1,34 Гбайт (9%)
Заголовок : Оригинал, DTS 1509 Kbps 5/1
Язык : French
Default : Нет
Forced : Нет
Текст #1
Идентификатор : 4
Формат : UTF-8
Идентификатор кодека : S_TEXT/UTF8
Идентификатор кодека/Информация : UTF-8 Plain Text
Заголовок : Субтитры
Язык : Russian
Default : Нет
Forced : Нет
Текст #2
Идентификатор : 5
Формат : UTF-8
Идентификатор кодека : S_TEXT/UTF8
Идентификатор кодека/Информация : UTF-8 Plain Text
Заголовок : Субтитры
Язык : English
Default : Нет
Forced : Нет
Меню
00:00:00.000 : fr:Chapter 01
00:02:29.607 : fr:Chapter 02
00:15:57.623 : fr:Chapter 03
00:29:29.184 : fr:Chapter 04
00:38:10.705 : fr:Chapter 05
00:51:06.688 : fr:Chapter 06
01:04:39.166 : fr:Chapter 07
01:14:41.518 : fr:Chapter 08
01:29:00.460 : fr:Chapter 09
01:42:27.474 : fr:Chapter 10
01:54:49.716 : fr:Chapter 11
02:04:56.238 : fr:Chapter 12

Скриншоты

[Цитировать]



Показать сообщения:    

Текущее время: 04-Дек 09:04

Часовой пояс: UTC + 3


Вы не можете начинать темы
Вы не можете отвечать на сообщения
Вы не можете редактировать свои сообщения
Вы не можете удалять свои сообщения
Вы не можете голосовать в опросах
Вы не можете прикреплять файлы к сообщениям
Вы не можете скачивать файлы

!ВНИМАНИЕ!
Сайт не предоставляет электронные версии произведений, а занимается лишь коллекционированием и каталогизацией ссылок, присылаемых и публикуемых на форуме нашими читателями. Если вы являетесь правообладателем какого-либо представленного материала и не желаете, чтобы ссылка на него находилась в нашем каталоге, свяжитесь с нами, и мы незамедлительно удалим ее. Файлы для обмена на трекере предоставлены пользователями сайта, и администрация не несет ответственности за их содержание. Просьба не заливать файлы, защищенные авторскими правами, а также файлы нелегального содержания!