[ Сегодня идет свободное скачивание без начисления Download ]


Статистика раздачи
Нет
 
   
 
Top  
 
 
-Хранители снов / Rise of the Guardians (2012) BDRemux [1080p]- Год выпуска: 2012
Страна: США
Производство: DreamWorks Animation
Жанр: Компьютерная анимация, Приключения
Режиссер: Питер Рэмси
Персонажи: Алек Болдуин, Айла Фишер, Дакота Гойо, Хью Джекман, Джуд Лоу, Крис Пайн, Хамани Гриффин, Камиль МакФедден, Джорджи Грив, Эмили Нордвинд
Перевод: Дублированный
Язык субтитров: Английский,Русский,Украинский
Описание фильма:
Когда злой дух Кромешник посягает на самое дорогое — детские мечты, Северянин, Ледяной Джек, Кролик, Зубная Фея и Песочный Человек впервые объединяются, чтобы создать команду Хранителей снов…
Дата мировой премьеры: 10 октября 2012
Дата российской премьеры: 22 ноября 2012, «Централ Партнершип»
Дата выхода DVD/Blu-Ray релиза: 25 марта 2013, «Новый Диск»
Продолжительность: 01:37:11
Качество видео: BDRemux
Видеокодек: MPEG-4 AVC/H.264
Битрейт видео: ~33000 kbps
Размер кадра: 1920х1080
Аудио 1: A_TRUEHD English 6348 kbps 7.1/ 48 kHz / 24 бит
Аудио 2: AC3 Russian 640 kbps 5.1 / 48 kHz / 16 бит
Аудио 3: AC3 Ukrainian 640 kbps 5.1 / 48 kHz / 16 бит

MediaInfo:

Общее
Уникальный идентификатор : 174725511643837052369409526848207499384 (0x8372E8D47D2E4D6D83C788570608B078)
Полное имя : Хрантели снов.2012.BDRemux.[1080p].mkv
Формат : Matroska
Версия формата : Version 4 / Version 2
Размер файла : 24,5 Гбайт
Продолжительность : 1 ч. 37 м.
Режим общего битрейта : Переменный
Общий поток : 36,1 Мбит/сек
Название фильма : Хранители Снов_NaNaMe by Illusivi
Дата кодирования : UTC 2013-03-20 22:41:55
Программа кодирования : mkvmerge v6.1.0 ('Old Devil') built on Mar 2 2013 14:32:37
Библиотека кодирования : libebml v1.3.0 + libmatroska v1.4.0
Видео
Идентификатор : 1
Формат : AVC
Формат/Информация : Advanced Video Codec
Профиль формата : [email protected]
Параметр CABAC формата : Да
Параметр ReFrames формата : 4 кадра
Параметр GOP формата : M=1, N=12
Идентификатор кодека : V_MPEG4/ISO/AVC
Продолжительность : 1 ч. 37 м.
Вид битрейта : Переменный
Максимальный битрейт : 33,0 Мбит/сек
Ширина : 1920 пикселей
Высота : 1080 пикселей
Соотношение сторон : 16:9
Частота кадров : 23,976 кадра/сек
Цветовое пространство : YUV
Субдискретизация насыщенности : 4:2:0
Битовая глубина : 8 бит
Тип развёртки : Прогрессивная
Default : Да
Forced : Нет
Аудио #1
Идентификатор : 2
Формат : TrueHD
Идентификатор кодека : A_TRUEHD
Продолжительность : 1 ч. 37 м.
Вид битрейта : Переменный
Максимальный битрейт : 6348 Кбит/сек
Каналы : 8 каналов
Расположение каналов : Front: L C R, Side: L R, Back: L R, LFE
Частота : 48,0 КГц
Метод сжатия : Без потерь
Язык : English
Default : Нет
Forced : Нет
Аудио #2
Идентификатор : 3
Формат : AC-3
Формат/Информация : Audio Coding 3
Расширение режима : CM (complete main)
Параметр Endianness формата : Big
Идентификатор кодека : A_AC3
Продолжительность : 1 ч. 37 м.
Вид битрейта : Постоянный
Битрейт : 640 Кбит/сек
Каналы : 6 каналов
Расположение каналов : Front: L C R, Side: L R, LFE
Частота : 48,0 КГц
Битовая глубина : 16 бит
Метод сжатия : С потерями
Размер потока : 445 Мбайт (2%)
Язык : Russian
Default : Да
Forced : Нет
Аудио #3
Идентификатор : 4
Формат : AC-3
Формат/Информация : Audio Coding 3
Расширение режима : CM (complete main)
Параметр Endianness формата : Big
Идентификатор кодека : A_AC3
Продолжительность : 1 ч. 37 м.
Вид битрейта : Постоянный
Битрейт : 640 Кбит/сек
Каналы : 6 каналов
Расположение каналов : Front: L C R, Side: L R, LFE
Частота : 48,0 КГц
Битовая глубина : 16 бит
Метод сжатия : С потерями
Размер потока : 445 Мбайт (2%)
Язык : Ukrainian
Default : Нет
Forced : Нет
Текст #1
Идентификатор : 5
Формат : PGS
Режим смешивания : zlib
Идентификатор кодека : S_HDMV/PGS
Идентификатор кодека/Информация : The same subtitle format used on BDs/HD-DVDs
Язык : English
Default : Да
Forced : Нет
Текст #2
Идентификатор : 6
Формат : PGS
Режим смешивания : zlib
Идентификатор кодека : S_HDMV/PGS
Идентификатор кодека/Информация : The same subtitle format used on BDs/HD-DVDs
Язык : English
Default : Нет
Forced : Нет
Текст #3
Идентификатор : 7
Формат : PGS
Режим смешивания : zlib
Идентификатор кодека : S_HDMV/PGS
Идентификатор кодека/Информация : The same subtitle format used on BDs/HD-DVDs
Язык : Russian
Default : Нет
Forced : Нет
Текст #4
Идентификатор : 8
Формат : PGS
Режим смешивания : zlib
Идентификатор кодека : S_HDMV/PGS
Идентификатор кодека/Информация : The same subtitle format used on BDs/HD-DVDs
Язык : Ukrainian
Default : Нет
Forced : Нет
Меню
00:00:00.000 : en:Chapter 0
00:03:51.481 : en:Chapter 0
00:10:34.842 : en:Chapter 0
00:16:17.643 : en:Chapter 0
00:24:49.362 : en:Chapter 0
00:30:38.378 : en:Chapter 0
00:36:38.946 : en:Chapter 0
00:43:05.165 : en:Chapter 0
00:50:22.310 : en:Chapter 0
00:58:09.611 : en:Chapter 0
01:03:55.331 : en:Chapter 0
01:09:12.815 : en:Chapter 0
01:14:03.188 : en:Chapter 0
01:20:44.923 : en:Chapter 0
01:24:51.503 : en:Chapter 0
01:28:33.891 : en:Chapter 0
01:37:11.659 : en:Chapter 0

Рецензия:

В этом году было немало хороших мультфильмов и вот один из последних — «Хранители снов».
Dreamworks создала много мультфильмов, которые покорили как детей, так и взрослых и этот не станет исключением. Действие развивается динамично и зритель не будет скучать. Зубная фея, Пасхальный кролик, Ледяной Джек и Песчаной человек все эти персонажи, представленные в картине ближе зарубежному зрителю. И даже Санта Клаус наш Дед Мороз представлен здесь совсем по другому и это позволяет взглянуть на старых персонажей по новому. Но всё же, как бы не были далеки эти герои от зрителя, они олицетворяют собой веру в чудеса, а это чувство не имеет границ.
Хочется так же отметить визуальный ряд, картинка стоит на уровне. Волшебный мир, как и обычный, прорисован очень красиво. Недаром Dreamworks сравнивают с Pixar по качеству работ. «Хранители снов» вышли в 3D, как и многие фильмы и мультфильмы в этом году. Что — то рассказывать про него мне не хочется ведь оно такое же, как и во многих других фильмах. Вот действительно, что может сказать про его качество больше всяких слов, так это то, дети в зале, которые ловили снежинки, летевшие с экрана.
Участие голливудских звезд в озвучке — это конечно хорошо, вот только российский зритель их не услышит.
В общем, картина «Хранители снов» получилась доброй и веселой, которую, несомненно должны смотреть всей семьёй.
Скриншоты: Всем приятного просмотраВремя раздачи: 24х7 до 10 скачавших далее по возможности

[Цитировать]



Показать сообщения:    

Текущее время: 05-Дек 05:34

Часовой пояс: UTC + 3


Вы не можете начинать темы
Вы не можете отвечать на сообщения
Вы не можете редактировать свои сообщения
Вы не можете удалять свои сообщения
Вы не можете голосовать в опросах
Вы не можете прикреплять файлы к сообщениям
Вы не можете скачивать файлы

!ВНИМАНИЕ!
Сайт не предоставляет электронные версии произведений, а занимается лишь коллекционированием и каталогизацией ссылок, присылаемых и публикуемых на форуме нашими читателями. Если вы являетесь правообладателем какого-либо представленного материала и не желаете, чтобы ссылка на него находилась в нашем каталоге, свяжитесь с нами, и мы незамедлительно удалим ее. Файлы для обмена на трекере предоставлены пользователями сайта, и администрация не несет ответственности за их содержание. Просьба не заливать файлы, защищенные авторскими правами, а также файлы нелегального содержания!