[ Сегодня идет свободное скачивание без начисления Download ]


Статистика раздачи
Нет
 
   
 
Top  
 
 
-Что творят мужчины! (2013) DVDRip
«Секс на вылет»
- Русское название: Что творят мужчины!
Год выпуска: 2013
Производство: Россия / Enjoy Movies
Жанр: Комедия
Перевод: Не требуется [Русский]
Субтитры: Отсутствуют
Дата мировой премьеры: 28 февраля 2013
Дата российской премьеры: 28 февраля 2013, «Каропрокат»
Дата выхода DVD релиза: 25 марта 2013, «Новый Диск»
Дата выхода Blu-Ray релиза: 25 марта 2013, «Новый Диск»
Режиссер: Сарик Андреасян
Актеры: Таир Мамедов, Константин Крюков, Роман Юнусов, Гавриил Гордеев, Равшана Куркова, Анна Хилькевич, Кристина Асмус, Наталия Медведева, Екатерина Скулкина, Даша Астафьева
Описание фильма:
Неприступные женщины, полмиллиона долларов и четверо героев которым предстоит принять участие в игре «Секс-лото», организованное экстравагантным миллионером. Суть игры — за пять дней соблазнить как можно больше женщин на морском курорте. Получив задания, великолепная четверка бросается в бой.
Но все цели совсем не простые — бабушка, жена олигарха, девственница, феминистка, сектантка — и приз получит только лучший. Каждый применит свой фирменный арсенал, и все будут близки к тому, чтобы получить заветный куш, записав новых жертв в список своих мужских побед. Но неожиданно в «дело секса» вмешается любовь.

Продолжительность: 01:23:08
Качество видео: DVDRip [MysTeRy]
Видеокодек: MPEG-4 AVC/H.264
Битрейт видео: ~2063 Кбит/сек
Размер кадра: 720 x [email protected] x 472
Аудиокодек: AC3 5.1
Битрейт аудио: 448 Кбит/сек

MediaInfo:

Общее
Уникальный идентификатор         : 233471254355988531378393525419028228653 (0xAFA4ED90DE9E52FE886E58EB1ECBAA2D)
Полное имя                       : H:\Chto.tvoryat.muzhchiny.2013.O.x264.DVDRip-MysTeRy.mkv
Формат                           : Matroska
Версия формата                   : Version 4 / Version 2
Размер файла                     : 1,46 Гбайт
Продолжительность                : 1 ч. 23 м.
Общий поток                      : 2512 Кбит/сек
Название фильма                  : Chto.tvoryat.muzhchiny.2013.O.x264.DVDRip-MysTeRy
Дата кодирования                 : UTC 2013-03-21 16:03:10
Программа кодирования            : mkvmerge v6.1.0 ('Old Devil') built on Mar  2 2013 14:32:37
Библиотека кодирования           : libebml v1.3.0 + libmatroska v1.4.0
Видео
Идентификатор                    : 1
Формат                           : AVC
Формат/Информация                : Advanced Video Codec
Профиль формата                  : [url=mailto:[email protected]][email protected][/url]
Параметр CABAC формата           : Да
Параметр ReFrames формата        : 12 кадров
Идентификатор кодека             : V_MPEG4/ISO/AVC
Продолжительность                : 1 ч. 23 м.
Битрейт                          : 2063 Кбит/сек
Ширина                           : 720 пикселей
Высота                           : 472 пикселя
Соотношение сторон               : 2,2:1
Частота кадров                   : 25,000 кадров/сек
Цветовое пространство            : YUV
Субдискретизация насыщенности    : 4:2:0
Битовая глубина                  : 8 бит
Тип развёртки                    : Прогрессивная
Бит/(Пиксели*Кадры)              : 0.243
Размер потока                    : 1,17 Гбайт (80%)
Заголовок                        : ENCODER........: MysTeRy
Библиотека кодирования           : x264 core 130 r2273 b3065e6
Настройки программы              : cabac=1 / ref=12 / deblock=1:-3:-3 / analyse=0x3:0x133 / me=umh / subme=10 / psy=1 / psy_rd=1.00:0.00 / mixed_ref=1 / me_range=32 / chroma_me=1 / trellis=2 / 8x8dct=1 / cqm=0 / deadzone=21,11 / fast_pskip=0 / chroma_qp_offset=-2 / threads=12 / lookahead_threads=2 / sliced_threads=0 / nr=0 / decimate=0 / interlaced=0 / bluray_compat=0 / constrained_intra=0 / bframes=8 / b_pyramid=2 / b_adapt=2 / b_bias=0 / direct=3 / weightb=1 / open_gop=0 / weightp=2 / keyint=250 / keyint_min=25 / scenecut=40 / intra_refresh=0 / rc_lookahead=60 / rc=2pass / mbtree=0 / bitrate=2063 / ratetol=1.0 / qcomp=0.70 / qpmin=0 / qpmax=69 / qpstep=4 / cplxblur=20.0 / qblur=0.5 / vbv_maxrate=50000 / vbv_bufsize=61400 / nal_hrd=none / ip_ratio=1.40 / pb_ratio=1.30 / aq=2:0.80
Язык                             : Russian
Default                          : Да
Forced                           : Нет
Основные цвета                   : BT.709-5, BT.1361, IEC 61966-2-4, SMPTE RP177
Характеристики трансфера         : BT.709-5, BT.1361
Коэффициенты матрицы             : BT.709-5, BT.1361, IEC 61966-2-4 709, SMPTE RP177
Аудио
Идентификатор                    : 2
Формат                           : AC-3
Формат/Информация                : Audio Coding 3
Расширение режима                : CM (complete main)
Идентификатор кодека             : A_AC3
Продолжительность                : 1 ч. 23 м.
Вид битрейта                     : Постоянный
Битрейт                          : 448 Кбит/сек
Каналы                           : 6 каналов
Расположение каналов             : Front: L C R, Side: L R, LFE
Частота                          : 48,0 КГц
Битовая глубина                  : 16 бит
Метод сжатия                     : С потерями
Размер потока                    : 266 Мбайт (18%)
Заголовок                        : Original
Язык                             : Russian
Default                          : Да
Forced                           : Нет
Меню
00:00:00.000                     : ru:00:00:00.000
00:09:32.572                     : ru:00:09:32.572
00:17:06.984                     : ru:00:17:06.984
00:26:16.784                     : ru:00:26:16.784
00:34:40.203                     : ru:00:34:40.203
00:45:42.615                     : ru:00:45:42.615
00:52:01.493                     : ru:00:52:01.493
01:00:46.768                     : ru:01:00:46.768
01:10:10.081                     : ru:01:10:10.081
01:19:30.808                     : ru:01:19:30.808

x264:

x264 [info]: frame I:1609  Avg QP:14.76  size: 52713
x264 [info]: frame P:29284 Avg QP:18.19  size: 19948
x264 [info]: frame B:93822 Avg QP:20.69  size:  6578
Скриншоты:



Время раздачи: 16.30-23.00 до 5 скачавших

[Цитировать]

Топик был перенесен из форума Новинки кинопроката в форум Комедия
Henkok



Показать сообщения:    

Текущее время: 04-Дек 13:18

Часовой пояс: UTC + 3


Вы не можете начинать темы
Вы не можете отвечать на сообщения
Вы не можете редактировать свои сообщения
Вы не можете удалять свои сообщения
Вы не можете голосовать в опросах
Вы не можете прикреплять файлы к сообщениям
Вы не можете скачивать файлы

!ВНИМАНИЕ!
Сайт не предоставляет электронные версии произведений, а занимается лишь коллекционированием и каталогизацией ссылок, присылаемых и публикуемых на форуме нашими читателями. Если вы являетесь правообладателем какого-либо представленного материала и не желаете, чтобы ссылка на него находилась в нашем каталоге, свяжитесь с нами, и мы незамедлительно удалим ее. Файлы для обмена на трекере предоставлены пользователями сайта, и администрация не несет ответственности за их содержание. Просьба не заливать файлы, защищенные авторскими правами, а также файлы нелегального содержания!