[ Сегодня идет свободное скачивание без начисления Download ]


Статистика раздачи
Нет
 
   
 
Top  
 
 
-Братец медвежонок / Brother Bear (2003) BDRip- Год выпуска: 2003
Страна: США
Производство: Walt Disney Feature Animation
Жанр: Мультфильм, Фэнтези, Приключения, Семейный
Режиссер: Аарон Блэйз, Роберт Уолкер
В ролях: Хоакин Феникс, Джереми Суарес, Джейсон Райз, Рик Морэнис, Дэйв Томас, Д.Б. Суини, Джоан Коуплэнд, Майкл Кларк Дункан, Харольд Гулд, Пол Кристи
Перевод: Дублированный, многоголосый, двухголосый
Язык субтитров: Русский, Английский
Описание: Давным-давно, в те времена, когда по Земле ходили мамонты, а вечные льды достигали южных морей, жил охотник по имени Кенаи. Он был храбр и ловок, но однажды прогневил Великих Духов, убив медведицу — священного для него зверя, чей тотем он носил на шее. Тогда духи предков в наказание превратили в медведя самого Кенаи. Теперь он не может говорить по-человечески, за ним охотится его собственный брат, а еще к нему прибился озорной медвежонок Кода, не желающий оставить героя в покое. Но духи не зря свели Кенаи с Кодой — в час, когда охотник увидит в медвежонке родственную душу, он сможет снова стать человеком…

Продолжительность: 01:21:35
Качество видео: BDRip
Видеокодек: MPEG-4 AVC/H.264
Битрейт видео: ~8497 Kbps
Размер кадра: 1920x818
Аудио 1: Русский: 48 kHz, AC3, 6 ch, ~640.00 kbps - Дубляж (Blu-ray CEE)
Аудио 2: Русский: 48 kHz, AC3, 6 ch, ~384.00 kbps - Многоголосый закадровый
Аудио 3: Русский: 48 kHz, AC3, 2 ch, ~192.00 kbps - Двухголосый закадровый
Аудио 4: Украинский: 48 kHz, AC3, 2 ch, ~192.00 kbps - Дубляж («Невафильм Украина»)
Аудио 5: Англ-ий: 48 kHz, DTS, 6 ch, ~1536.00 kbps
Аудио 6: Англ-ий: 48 kHz, AAC, 2 ch, ~124.00 - (Rutt and Tuke's Commentary)
-

MediaInfo

General
Unique ID : 204667342590677831302606836029696129620 (0x99F97F1252FD4232BDDACEED794A3A54)
Complete name : D:\Brother.Bear.Duology.2003.2006.1080p.BluRay\Brother.Bear.2003.1080p.BluRay.3xRus.Ukr.Eng.mkv
Format : Matroska
Format version : Version 4 / Version 2
File size : 6.86 GiB
Duration : 1h 25mn
Overall bit rate : 11.5 Mbps
Encoded date : UTC 2013-03-19 08:45:34
Writing application : mkvmerge v6.1.0 ('Old Devil') built on Mar 2 2013 14:32:37
Writing library : libebml v1.3.0 + libmatroska v1.4.0
Attachment : Yes / Yes
Video
ID : 1
Format : AVC
Format/Info : Advanced Video Codec
Format profile : High@L4.1
Format settings, CABAC : Yes
Format settings, ReFrames : 5 frames
Codec ID : V_MPEG4/ISO/AVC
Duration : 1h 25mn
Width : 1 920 pixels
Height : 818 pixels
Display aspect ratio : 2.35:1
Frame rate mode : Constant
Frame rate : 23.976 fps
Color space : YUV
Chroma subsampling : 4:2:0
Bit depth : 8 bits
Scan type : Progressive
Writing library : x264 core 130 r2273kMod b3065e6
Encoding settings : cabac=1 / ref=5 / deblock=1:-1:-1 / analyse=0x3:0x113 / me=umh / subme=11 / psy=1 / fade_compensate=0.00 / psy_rd=1.00:0.00 / mixed_ref=1 / me_range=48 / chroma_me=1 / trellis=2 / 8x8dct=1 / cqm=0 / deadzone=21,11 / fast_pskip=1 / chroma_qp_offset=-2 / threads=12 / lookahead_threads=3 / sliced_threads=0 / nr=0 / decimate=1 / interlaced=0 / bluray_compat=0 / constrained_intra=0 / bframes=10 / b_pyramid=2 / b_adapt=2 / b_bias=0 / direct=3 / weightb=1 / open_gop=0 / weightp=2 / keyint=250 / keyint_min=23 / scenecut=40 / intra_refresh=0 / rc_lookahead=40 / rc=crf / mbtree=0 / crf=16.0000 / qcomp=0.70 / qpmin=0 / qpmax=69 / qpstep=4 / vbv_maxrate=50000 / vbv_bufsize=62500 / crf_max=0.0 / nal_hrd=none / ip_ratio=1.40 / pb_ratio=1.30 / aq=1:0.90
Language : English
Default : Yes
Forced : No
Matrix coefficients : BT.709
Audio #1
ID : 2
Format : AC-3
Format/Info : Audio Coding 3
Mode extension : CM (complete main)
Format settings, Endianness : Big
Codec ID : A_AC3
Duration : 1h 25mn
Bit rate mode : Constant
Bit rate : 640 Kbps
Channel(s) : 6 channels
Channel positions : Front: L C R, Side: L R, LFE
Sampling rate : 48.0 KHz
Bit depth : 16 bits
Compression mode : Lossy
Stream size : 390 MiB (6%)
Title : AC3 5.1 @ 640 kbps - Dub, Blu-ray CEE
Language : Russian
Default : Yes
Forced : No
Audio #2
ID : 3
Format : AC-3
Format/Info : Audio Coding 3
Mode extension : CM (complete main)
Format settings, Endianness : Big
Codec ID : A_AC3
Duration : 1h 25mn
Bit rate mode : Constant
Bit rate : 384 Kbps
Channel(s) : 6 channels
Channel positions : Front: L C R, Side: L R, LFE
Sampling rate : 48.0 KHz
Bit depth : 16 bits
Compression mode : Lossy
Stream size : 234 MiB (3%)
Title : AC3 5.1 @ 384 kbps - MVO
Language : Russian
Default : No
Forced : No
Audio #3
ID : 4
Format : AC-3
Format/Info : Audio Coding 3
Mode extension : CM (complete main)
Format settings, Endianness : Big
Codec ID : A_AC3
Duration : 1h 25mn
Bit rate mode : Constant
Bit rate : 192 Kbps
Channel(s) : 2 channels
Channel positions : Front: L R
Sampling rate : 48.0 KHz
Bit depth : 16 bits
Compression mode : Lossy
Stream size : 117 MiB (2%)
Title : AC3 2.0 @ 192 kbps - DVO
Language : Russian
Default : No
Forced : No
Audio #4
ID : 5
Format : AC-3
Format/Info : Audio Coding 3
Mode extension : CM (complete main)
Format settings, Endianness : Big
Codec ID : A_AC3
Duration : 1h 25mn
Bit rate mode : Constant
Bit rate : 192 Kbps
Channel(s) : 2 channels
Channel positions : Front: L R
Sampling rate : 48.0 KHz
Bit depth : 16 bits
Compression mode : Lossy
Stream size : 117 MiB (2%)
Title : AC3 2.0 @ 192 kbps - Dub, «Nevafilm Ukraine»
Language : Ukrainian
Default : No
Forced : No
Audio #5
ID : 6
Format : DTS
Format/Info : Digital Theater Systems
Mode : 16
Format settings, Endianness : Big
Codec ID : A_DTS
Duration : 1h 25mn
Bit rate mode : Constant
Bit rate : 1 509 Kbps
Channel(s) : 6 channels
Channel positions : Front: L C R, Side: L R, LFE
Sampling rate : 48.0 KHz
Bit depth : 24 bits
Compression mode : Lossy
Stream size : 920 MiB (13%)
Title : DTS 5.1 @ 1536 kbps
Language : English
Default : No
Forced : No
Audio #6
ID : 7
Format : AAC
Format/Info : Advanced Audio Codec
Format profile : LC
Codec ID : A_AAC
Duration : 1h 25mn
Channel(s) : 2 channels
Channel positions : Front: L R
Sampling rate : 48.0 KHz
Compression mode : Lossy
Delay relative to video : 9ms
Title : Rutt and Tuke's Commentary
Language : English
Default : No
Forced : No
Text #1
ID : 8
Format : UTF-8
Codec ID : S_TEXT/UTF8
Codec ID/Info : UTF-8 Plain Text
Title : Captions
Language : Russian
Default : Yes
Forced : No
Text #2
ID : 9
Format : UTF-8
Codec ID : S_TEXT/UTF8
Codec ID/Info : UTF-8 Plain Text
Language : Russian
Default : No
Forced : No
Text #3
ID : 10
Format : UTF-8
Codec ID : S_TEXT/UTF8
Codec ID/Info : UTF-8 Plain Text
Language : English
Default : No
Forced : No
Text #4
ID : 11
Format : UTF-8
Codec ID : S_TEXT/UTF8
Codec ID/Info : UTF-8 Plain Text
Language : English
Default : No
Forced : No
Text #5
ID : 12
Format : UTF-8
Codec ID : S_TEXT/UTF8
Codec ID/Info : UTF-8 Plain Text
Title : Commentary
Language : Russian
Default : No
Forced : No
Text #6
ID : 13
Format : UTF-8
Codec ID : S_TEXT/UTF8
Codec ID/Info : UTF-8 Plain Text
Title : Commentary
Language : English
Default : No
Forced : No
Menu
00:00:00.000 : en:Prologue: Denahi Remembers
00:02:01.287 : en:"Great Spirits"
00:07:03.464 : en:Kenai's Ceremony
00:11:24.100 : en:Glacier Fight
00:14:33.205 : en:Goodbye Sitka
00:15:21.253 : en:Argument
00:20:10.083 : en:"Transformation"
00:24:34.473 : en:Bear's Eye View
00:27:06.708 : en:Rutt & Tuke
00:29:45.617 : en:Meet Koda
00:33:01.187 : en:Ice Cave
00:36:18.926 : en:Denahi Finds The Ice Cave
00:38:26.053 : en:"On My Way"
00:42:22.581 : en:Nightmare On The Mammoths
00:44:18.030 : en:I Spy
00:47:10.369 : en:Abandoned Village
00:48:59.519 : en:Butting Heads
00:50:16.054 : en:Valley Of Fire
00:54:21.132 : en:Arrival At The Run
00:56:46.778 : en:"Welcome" (aka Fishing Song)
01:00:11.316 : en:Bear Party
01:04:58.895 : en:No Way Out / Kenai's Confession
01:08:28.854 : en:Denahi Sees A Sign
01:09:14.817 : en:Moose's Advice
01:11:20.109 : en:Mountain Top Fight
01:16:55.986 : en:Epilogue: "Great Spirits Reprise"
01:18:01.468 : en:Vignettes / End Credits
01:19:29.139 : en:"Through My Eyes"
-Скриншоты:
--Братец медвежонок 2: Лоси в бегах / Brother Bear 2 (2006) BDRip- Год выпуска: 2006
Страна: США
Производство: Walt Disney Feature Animation
Жанр: Мультфильм, Фэнтези, Комедия, Приключения, Семейный
Режиссер: Бен Глюк
В ролях: Патрик Демпси, Менди Мур, Джереми Суарез, Рик Моранис, Дейв Томас, Андреа Мартин, Кетрин Охара
Перевод: Дублированный, авторский
Язык субтитров: Русский, Английский
Описание: Это снова мы, но уже в новом мультфильме. Но не только мы, лоси, но также и большой медведь (его зовут Кенаи) и его маленький братец медвежонок (его зовут Кода) и еще новая девочка по имени Нита. Не правда ли от нее столько хлопот? Нита знала Большого Медведя и раньше, когда он еще и не был медведем. Это было в первом мультфильме, помните? В любом случае, они думали, что всегда будут вместе, даже если бы не смогли поладить друг с другом, как два сердитых бобра в земляной хижине. Ну и теперь Великие Духи говорят, что им нужно отправиться в удивительное большое путешествие, чтобы нарушить это соглашение. Поэтому не топчитесь на месте. А присоединяйтесь ко мне и моему брату - о! в этой истории также найдется место и для двух очаровательных лосих - в поисках веселых и диких приключений. (Вы заметили, что я сказал? Я сказал слово "диких" - это потому что мы в лесу.) Красота! Обещаю вам море веселья для всей семьи - вы готовы?

Продолжительность: 01:10:26
Качество видео: BDRip
Видеокодек: MPEG-4 AVC/H.264
Битрейт видео: ~11000 Kbps
Размер кадра: 1920x1080
Аудио 1: Русский: 48 kHz, AC3, 6 ch, ~640.00 kbps - Дубляж (Blu-ray CEE)
Аудио 2: Русский: 48 kHz, AC3, 2 ch, ~224.00 kbps - Одноголосый закадровый (Е. Гранкин)
Аудио 3: Англ-ий: 48 kHz, DTS, 6 ch, ~1536.00 kbps
-

MediaInfo

General
Unique ID : 252491992644451234552544320467934807290 (0xBDF4305E0E93BAEF82AA5653981A84FA)
Complete name : D:\Brother.Bear.Duology.2003.2006.1080p.BluRay\Brother.Bear.2.2006.1080p.BluRay.2xRus.Eng.mkv
Format : Matroska
Format version : Version 4 / Version 2
File size : 6.85 GiB
Duration : 1h 13mn
Overall bit rate : 13.3 Mbps
Movie name : Brother Bear 2 (2006) - Release for HDCLUB by Skazhutin
Encoded date : UTC 2013-03-19 11:20:07
Writing application : mkvmerge v6.1.0 ('Old Devil') built on Mar 2 2013 14:32:37
Writing library : libebml v1.3.0 + libmatroska v1.4.0
Attachment : Yes / Yes
Video
ID : 1
Format : AVC
Format/Info : Advanced Video Codec
Format profile : High@L4.1
Format settings, CABAC : Yes
Format settings, ReFrames : 4 frames
Codec ID : V_MPEG4/ISO/AVC
Duration : 1h 13mn
Bit rate : 11.0 Mbps
Width : 1 920 pixels
Height : 1 080 pixels
Display aspect ratio : 16:9
Frame rate mode : Constant
Frame rate : 23.976 fps
Color space : YUV
Chroma subsampling : 4:2:0
Bit depth : 8 bits
Scan type : Progressive
Bits/(Pixel*Frame) : 0.221
Stream size : 5.49 GiB (80%)
Writing library : x264 core 130 r2273kMod b3065e6
Encoding settings : cabac=1 / ref=4 / deblock=1:-1:-1 / analyse=0x3:0x113 / me=umh / subme=11 / psy=1 / fade_compensate=0.00 / psy_rd=1.00:0.00 / mixed_ref=1 / me_range=48 / chroma_me=1 / trellis=2 / 8x8dct=1 / cqm=0 / deadzone=21,11 / fast_pskip=0 / chroma_qp_offset=-2 / threads=12 / lookahead_threads=2 / sliced_threads=0 / nr=0 / decimate=0 / interlaced=0 / bluray_compat=0 / constrained_intra=0 / bframes=8 / b_pyramid=2 / b_adapt=2 / b_bias=0 / direct=3 / weightb=1 / open_gop=0 / weightp=2 / keyint=250 / keyint_min=23 / scenecut=40 / intra_refresh=0 / rc_lookahead=40 / rc=2pass / mbtree=0 / bitrate=11000 / ratetol=1.0 / qcomp=0.70 / qpmin=0 / qpmax=69 / qpstep=4 / cplxblur=20.0 / qblur=0.5 / vbv_maxrate=50000 / vbv_bufsize=62500 / nal_hrd=none / ip_ratio=1.40 / pb_ratio=1.30 / aq=1:0.90
Language : English
Default : Yes
Forced : No
Matrix coefficients : BT.709
Audio #1
ID : 2
Format : AC-3
Format/Info : Audio Coding 3
Mode extension : CM (complete main)
Format settings, Endianness : Big
Codec ID : A_AC3
Duration : 1h 13mn
Bit rate mode : Constant
Bit rate : 640 Kbps
Channel(s) : 6 channels
Channel positions : Front: L C R, Side: L R, LFE
Sampling rate : 48.0 KHz
Bit depth : 16 bits
Compression mode : Lossy
Stream size : 336 MiB (5%)
Title : AC3 5.1 @ 640 kbps - Dub, Blu-ray CEE
Language : Russian
Default : Yes
Forced : No
Audio #2
ID : 3
Format : AC-3
Format/Info : Audio Coding 3
Mode extension : CM (complete main)
Format settings, Endianness : Big
Codec ID : A_AC3
Duration : 1h 13mn
Bit rate mode : Constant
Bit rate : 224 Kbps
Channel(s) : 2 channels
Channel positions : Front: L R
Sampling rate : 48.0 KHz
Bit depth : 16 bits
Compression mode : Lossy
Stream size : 118 MiB (2%)
Title : AC3 2.0 @ 192 kbps - VO, Grankin
Language : Russian
Default : No
Forced : No
Audio #3
ID : 4
Format : DTS
Format/Info : Digital Theater Systems
Mode : 16
Format settings, Endianness : Big
Codec ID : A_DTS
Duration : 1h 13mn
Bit rate mode : Constant
Bit rate : 1 509 Kbps
Channel(s) : 6 channels
Channel positions : Front: L C R, Side: L R, LFE
Sampling rate : 48.0 KHz
Bit depth : 24 bits
Compression mode : Lossy
Stream size : 793 MiB (11%)
Title : DTS 5.1 @ 1536 kbps
Language : English
Default : No
Forced : No
Text #1
ID : 5
Format : UTF-8
Codec ID : S_TEXT/UTF8
Codec ID/Info : UTF-8 Plain Text
Language : Russian
Default : No
Forced : No
Text #2
ID : 6
Format : UTF-8
Codec ID : S_TEXT/UTF8
Codec ID/Info : UTF-8 Plain Text
Language : English
Default : No
Forced : No
Text #3
ID : 7
Format : UTF-8
Codec ID : S_TEXT/UTF8
Codec ID/Info : UTF-8 Plain Text
Language : English
Default : No
Forced : No
Menu
00:00:00.000 : en:Opening Title
00:04:05.870 : en:Remembering Nita
00:06:47.907 : en:Great Spirits Intervene
00:10:46.312 : en:Consulting the Sha-Woman
00:13:53.624 : en:Kenai and Nita Reunited
00:23:25.112 : en:Losing the Amulet
00:27:31.983 : en:A Trade!
00:32:45.129 : en:Matchmaker
00:43:51.670 : en:Avalanche
00:48:40.834 : en:The Equinox
00:57:11.302 : en:Bears in the Village
01:01:27.517 : en:Nita's Decision
-Скриншоты:
-Релиз от:

Время раздачи: С 09:00 до 24:00

[Цитировать]



Показать сообщения:    

Текущее время: 07-Дек 19:24

Часовой пояс: UTC + 3


Вы не можете начинать темы
Вы не можете отвечать на сообщения
Вы не можете редактировать свои сообщения
Вы не можете удалять свои сообщения
Вы не можете голосовать в опросах
Вы не можете прикреплять файлы к сообщениям
Вы не можете скачивать файлы

!ВНИМАНИЕ!
Сайт не предоставляет электронные версии произведений, а занимается лишь коллекционированием и каталогизацией ссылок, присылаемых и публикуемых на форуме нашими читателями. Если вы являетесь правообладателем какого-либо представленного материала и не желаете, чтобы ссылка на него находилась в нашем каталоге, свяжитесь с нами, и мы незамедлительно удалим ее. Файлы для обмена на трекере предоставлены пользователями сайта, и администрация не несет ответственности за их содержание. Просьба не заливать файлы, защищенные авторскими правами, а также файлы нелегального содержания!