[ Сегодня идет свободное скачивание без начисления Download ]


Статистика раздачи
Нет
 
   
 
Top  
 
 
-Тачки 2 / Cars 2 (2011) BDRip- Год выпуска: 2011
страна: США
Производство: Pixar Animation Studios
Жанр: Мультфильм, Боевик, Триллер, Комедия, Приключения, Семейный
Режиссер: Джон Лассетер, Брэд Льюис
В ролях: Дмитрий Харатьян, Сергей Кузнецов, Леонид Каневский, Жанна Фриске, Леонид Ярмольник ...
Перевод: Дублированный
Субтитры: нет
Описание:
Молния МакКуин и его друг Мэтр отправляются в международное путешествие — когда МакКуин получает шанс участвовать в соревнованиях для самых быстрых машин в мире, Мировом Гран-При. Этапы этих престижных гонок заведут друзей в Токио, на набережные Парижа, на побережье Италии, и на улицы туманного Лондона. Продолжительность: 01:47:01
Качество: BDRip-Видеокодек: MPEG-4 AVC/H.264
Битрейт видео: ~11,3 Мбит/сек
Размер кадра: 1920x1080
Аудио №1: AC3 5.1 640 kbps - Русский
Аудио №2: AC3 5.1 640 kbps - Украинский
Аудио №3: AC3 5.1 640 kbps - Английский-Дата мировой премьеры 18 июня 2011
Дата российской премьеры: 23 июня 2011, «WDSSPR»
Дата выхода DVD релиза: 1 ноября 2011, «Уолт Дисней Компани СНГ»
Дата выхода BLU-RAY релиза: 29 ноября 2011, «Уолт Дисней Компани СНГ»-

Media info:

Общее
Уникальный идентификатор : 217752300671665989614984461642390981377 (0xA3D191505953BB9E86929054B4AE4B01)
Полное имя : H:\my films\CARS2_3D.mkv
Формат : Matroska
Версия формата : Version 2
Размер файла : 10,1 Гбайт
Продолжительность : 1 ч. 47 м.
Общий поток : 13,5 Мбит/сек
Название фильма : CARS2_3D_crop_over/under
Дата кодирования : UTC 2013-03-18 16:03:14
Программа кодирования : mkvmerge v5.7.0 ('The Whirlwind') built on Aug 7 2012 14:11:40
Библиотека кодирования : libebml v1.2.3 + libmatroska v1.3.0
Видео
Идентификатор : 1
Формат : AVC
Формат/Информация : Advanced Video Codec
Профиль формата : High@L4.1
Параметр CABAC формата : Да
Параметр ReFrames формата : 4 кадра
Режим смешивания : Header stripping
Идентификатор кодека : V_MPEG4/ISO/AVC
Продолжительность : 1 ч. 47 м.
Битрейт : 11,3 Мбит/сек
Ширина : 1920 пикселей
Высота : 1080 пикселей
Соотношение сторон : 16:9
Режим частоты кадров : Постоянный
Частота кадров : 23,976 кадра/сек
Цветовое пространство : YUV
Субдискретизация насыщенности : 4:2:0
Битовая глубина : 8 бит
Тип развёртки : Прогрессивная
Бит/(Пиксели*Кадры) : 0.227
Размер потока : 8,43 Гбайт (84%)
Заголовок : rip by I/N
Библиотека кодирования : x264 core 128 r2216M 198a7ea
Настройки программы : cabac=1 / ref=4 / deblock=1:-3:-3 / analyse=0x3:0x133 / me=umh / subme=9 / psy=1 / psy_rd=1.00:0.10 / mixed_ref=1 / me_range=32 / chroma_me=1 / trellis=2 / 8x8dct=1 / cqm=1 / deadzone=21,11 / fast_pskip=1 / chroma_qp_offset=-3 / threads=4 / lookahead_threads=1 / sliced_threads=0 / nr=0 / decimate=1 / interlaced=0 / bluray_compat=0 / constrained_intra=0 / bframes=4 / b_pyramid=2 / b_adapt=2 / b_bias=0 / direct=1 / weightb=1 / open_gop=0 / weightp=2 / keyint=230 / keyint_min=23 / scenecut=40 / intra_refresh=0 / rc_lookahead=60 / rc=crf / mbtree=1 / crf=16.0 / qcomp=0.60 / qpmin=4 / qpmax=69 / qpstep=8 / vbv_maxrate=40000 / vbv_bufsize=30000 / crf_max=30.0 / nal_hrd=none / ip_ratio=1.40 / aq=1:0.70
Default : Да
Forced : Нет
Аудио #1
Идентификатор : 2
Формат : AC-3
Формат/Информация : Audio Coding 3
Расширение режима : CM (complete main)
Параметр Endianness формата : Big
Режим смешивания : Header stripping
Идентификатор кодека : A_AC3
Продолжительность : 1 ч. 47 м.
Вид битрейта : Постоянный
Битрейт : 640 Кбит/сек
Каналы : 6 каналов
Расположение каналов : Front: L C R, Side: L R, LFE
Частота : 48,0 КГц
Битовая глубина : 16 бит
Метод сжатия : С потерями
Размер потока : 490 Мбайт (5%)
Язык : Russian
Default : Да
Forced : Нет
Аудио #2
Идентификатор : 3
Формат : AC-3
Формат/Информация : Audio Coding 3
Расширение режима : CM (complete main)
Параметр Endianness формата : Big
Режим смешивания : Header stripping
Идентификатор кодека : A_AC3
Продолжительность : 1 ч. 47 м.
Вид битрейта : Постоянный
Битрейт : 640 Кбит/сек
Каналы : 6 каналов
Расположение каналов : Front: L C R, Side: L R, LFE
Частота : 48,0 КГц
Битовая глубина : 16 бит
Метод сжатия : С потерями
Размер потока : 490 Мбайт (5%)
Язык : Ukrainian
Default : Нет
Forced : Нет
Аудио #3
Идентификатор : 4
Формат : AC-3
Формат/Информация : Audio Coding 3
Расширение режима : CM (complete main)
Параметр Endianness формата : Big
Режим смешивания : Header stripping
Идентификатор кодека : A_AC3
Продолжительность : 1 ч. 47 м.
Вид битрейта : Постоянный
Битрейт : 640 Кбит/сек
Каналы : 6 каналов
Расположение каналов : Front: L C R, Side: L R, LFE
Частота : 48,0 КГц
Битовая глубина : 16 бит
Метод сжатия : С потерями
Размер потока : 490 Мбайт (5%)
Язык : English
Default : Нет
Forced : Нет
Меню
00:00:00.000 : en:(01)00:00:00:000
00:01:29.172 : en:(02)00:01:29:172
00:04:47.578 : en:(03)00:04:47:578
00:07:43.671 : en:(04)00:07:43:671
00:12:07.893 : en:(05)00:12:07:893
00:17:48.942 : en:(06)00:17:48:942
00:20:01.325 : en:(07)00:20:01:325
00:22:51.536 : en:(08)00:22:51:536
00:26:34.634 : en:(09)00:26:34:634
00:30:30.161 : en:(10)00:30:30:161
00:32:41.960 : en:(11)00:32:41:960
00:34:13.509 : en:(12)00:34:13:509
00:37:15.566 : en:(13)00:37:15:566
00:40:44.150 : en:(14)00:40:44:150
00:42:53.153 : en:(15)00:42:53:153
00:46:18.567 : en:(16)00:46:18:567
00:46:57.940 : en:(17)00:46:57:940
00:49:48.527 : en:(18)00:49:48:527
00:53:56.399 : en:(19)00:53:56:399
00:54:57.252 : en:(20)00:54:57:252
00:57:36.202 : en:(21)00:57:36:202
00:59:27.730 : en:(22)00:59:27:730
01:02:16.941 : en:(23)01:02:16:941
01:05:56.285 : en:(24)01:05:56:285
01:12:31.764 : en:(25)01:12:31:764
01:14:05.899 : en:(26)01:14:05:899
01:15:24.186 : en:(27)01:15:24:186
01:21:12.993 : en:(28)01:21:12:993
01:23:22.247 : en:(29)01:23:22:247
01:29:06.924 : en:(30)01:29:06:924
01:31:48.127 : en:(31)01:31:48:127
01:32:41.222 : en:(32)01:32:41:222
01:38:18.601 : en:(33)01:38:18:601
01:47:01.248 : en:(34)01:47:01:248
Проверено на встроенном плейере ТВ Samsung-D6500Скриншоты:

Особенности релиза:

Справа и слева у видеоряда обрезано по 248р, что дает возможность просмотра на полный экран (без черных полос) на телевизорах с соотношением сторон 16:9 без изменения пропорций. На мой взгляд плюсы данных рипов- это более глубокое восприятие 3D-эффектов (конечно там где они есть) К минусам отнесу- вынужденное обрезание кадра по бокам. Так-что господа- выбор за вами! Всем приятного просмотра
Время раздачи: 24/7 - круглосуточно до 10 скачавших

[Цитировать]



Показать сообщения:    

Текущее время: 10-Дек 00:21

Часовой пояс: UTC + 3


Вы не можете начинать темы
Вы не можете отвечать на сообщения
Вы не можете редактировать свои сообщения
Вы не можете удалять свои сообщения
Вы не можете голосовать в опросах
Вы не можете прикреплять файлы к сообщениям
Вы не можете скачивать файлы

!ВНИМАНИЕ!
Сайт не предоставляет электронные версии произведений, а занимается лишь коллекционированием и каталогизацией ссылок, присылаемых и публикуемых на форуме нашими читателями. Если вы являетесь правообладателем какого-либо представленного материала и не желаете, чтобы ссылка на него находилась в нашем каталоге, свяжитесь с нами, и мы незамедлительно удалим ее. Файлы для обмена на трекере предоставлены пользователями сайта, и администрация не несет ответственности за их содержание. Просьба не заливать файлы, защищенные авторскими правами, а также файлы нелегального содержания!