[ Сегодня идет свободное скачивание без начисления Download ]


Статистика раздачи
Нет
 
   
 
Top  
 
 
Автофокус
Auto Focus
«A day without sex is a day wasted.»
- Страна: США
Жанр: драма, криминал, биография
Год выпуска: 2002
Продолжительность: 01:45:44
-Перевод №1: Профессиональный (многоголосый закадровый)
Перевод №2: Профессиональный (многоголосый закадровый) ТВЧ
Субтитры: русские (Петр Гланц), английские
Оригинальная аудиодорожка: английская
-Режиссёр: Пол Шредер / Paul Schrader
В ролях: Грег Киннер (Bob Crane), Уиллем Дефо (John Carpenter), Рита Уилсон (Anne Crane), Мария Белло (Patricia Olson / Patrica Crane / Sigrid Valdis), Рон Лайбмен (Lenny), Брюс Соломон (Edward H. Feldman), Майкл Э. Роджерс (Richard Dawson), Курт Фуллер (Werner Klemperer), Кристофер Нейман (Robert Clary), Лайл Кэйнаус (John Banner), Доннамари Рекко (Melissa / Mistress Victoria), Эд Бегли мл. (Mel Rosen)
Описание: Сейчас мало кто помнит этого актера, но было время, когда имя Боба Крейна гремело на всю Америку. В 60-70-х годах ХХ века он был звездой сверхпопулярного комического шоу «Герои Хогана» и пользовался большим успехом. Однако даже на пике его известности мало кто знал, что красавец Боб вел двойную жизнь, о которой и повествует этот фильм.
Под маской рубахи-парня таился сексуально одержимый человек, устраивавший при помощи своего приятеля, снимавшегопроисходящее на камеру, изысканные эротические игрища с участием роскошных девочек. Тайной была его частная жизнь, тайной стала и смерть: в 1978 году Крейна нашли убитым. Убийца не найден до сих пор...
-
MPAA: R - Лицам до 17 лет обязательно присутствие взрослого-Качество: WEB-DL 720p [Auto.Focus.2002.720p.WEB-DL.H264-HDB]
Контейнер: MKV
Видео: H.264/AVC, 1278x720 (16:9), 23.976 fps, ~3888 kbps
Аудио №1: Русский: AC3 2.0, 48 kHz, 16 bit, ~192 kbps (MVO)
Аудио №2: Русский: AC3 2.0, 48 kHz, 16 bit, ~192 kbps (MVO - ТВЧ)
Аудио №3: Английский: AC3 5.1, 48 kHz, 16 bit, ~384 kbps
Формат субтитров: softsub (SRT)
Навигация по главам: есть
-
  • За многоголоску #1 спасибо Dimych2.
  • За многоголоску #2 (ТВЧ) спасибо Valeronius.
  • В русских субтитрах исправлены косяки с пунктуацией (лишние пробелы и т.п.), где нужно и возможно увеличил длину.
  • Тайминги глав на исходном WEB-DL были неточные, поправил.

-

MediaInfo

General
Complete name : J:\torrents\Auto.Focus.2002.720p.WEB-DL.2xRus.Eng.Sub.-GNR.mkv
Format : Matroska
Format version : Version 2
File size : 3.51 GiB
Duration : 1h 45mn
Overall bit rate : 4 747 Kbps
Movie name : Auto Focus (2002) Release for rutracker
Encoded date : UTC 2013-03-08 22:26:00
Writing application : mkvmerge v5.8.0 ('No Sleep / Pillow') built on Sep 2 2012 15:37:04
Writing library : libebml v1.2.3 + libmatroska v1.3.0
Video
ID : 1
Format : AVC
Format/Info : Advanced Video Codec
Format profile : [email protected]
Format settings, CABAC : No
Format settings, ReFrames : 2 frames
Codec ID : V_MPEG4/ISO/AVC
Duration : 1h 45mn
Bit rate : 3 885 Kbps
Width : 1 278 pixels
Height : 720 pixels
Display aspect ratio : 16:9
Frame rate mode : Constant
Frame rate : 23.976 fps
Color space : YUV
Chroma subsampling : 4:2:0
Bit depth : 8 bits
Scan type : Progressive
Bits/(Pixel*Frame) : 0.176
Stream size : 2.87 GiB (82%)
Language : English
Default : Yes
Forced : No
Color primaries : BT.709
Transfer characteristics : BT.709
Matrix coefficients : BT.709
Audio #1
ID : 2
Format : AC-3
Format/Info : Audio Coding 3
Mode extension : CM (complete main)
Format settings, Endianness : Big
Codec ID : A_AC3
Duration : 1h 45mn
Bit rate mode : Constant
Bit rate : 192 Kbps
Channel(s) : 2 channels
Channel positions : Front: L R
Sampling rate : 48.0 KHz
Bit depth : 16 bits
Compression mode : Lossy
Stream size : 145 MiB (4%)
Title : MVO
Language : Russian
Default : Yes
Forced : No
Audio #2
ID : 3
Format : AC-3
Format/Info : Audio Coding 3
Mode extension : CM (complete main)
Format settings, Endianness : Big
Codec ID : A_AC3
Duration : 1h 45mn
Bit rate mode : Constant
Bit rate : 192 Kbps
Channel(s) : 2 channels
Channel positions : Front: L R
Sampling rate : 48.0 KHz
Bit depth : 16 bits
Compression mode : Lossy
Stream size : 145 MiB (4%)
Title : MVO - ТВЧ
Language : Russian
Default : No
Forced : No
Audio #3
ID : 4
Format : AC-3
Format/Info : Audio Coding 3
Mode extension : CM (complete main)
Format settings, Endianness : Big
Codec ID : A_AC3
Duration : 1h 45mn
Bit rate mode : Constant
Bit rate : 384 Kbps
Channel(s) : 6 channels
Channel positions : Front: L C R, Side: L R, LFE
Sampling rate : 48.0 KHz
Bit depth : 16 bits
Compression mode : Lossy
Stream size : 290 MiB (8%)
Language : English
Default : No
Forced : No
Text #1
ID : 5
Format : UTF-8
Codec ID : S_TEXT/UTF8
Codec ID/Info : UTF-8 Plain Text
Title : Full (Петр Гланц)
Language : Russian
Default : No
Forced : No
Text #2
ID : 6
Format : UTF-8
Codec ID : S_TEXT/UTF8
Codec ID/Info : UTF-8 Plain Text
Title : Full
Language : English
Default : No
Forced : No
Menu
00:00:00.000 : en:1
00:05:48.223 : en:2
00:09:57.055 : en:3
00:14:40.588 : en:4
00:22:57.042 : en:5
00:29:14.044 : en:6
00:36:42.659 : en:7
00:44:44.557 : en:8
00:53:32.584 : en:9
00:58:22.332 : en:10
01:04:42.212 : en:11
01:13:14.724 : en:12
01:18:26.869 : en:13
01:23:19.578 : en:14
01:34:15.108 : en:15
01:39:43.436 : en:16

Скриншоты

-Built with Flash Release [url=http://rutracker.org/forum/viewtopic.php?t=1090620]?[/url]

[Цитировать]

Топик был перенесен из форума Сцен рипы в форум Зарубежное кино (HD Video)


Xenon



Показать сообщения:    

Текущее время: 06-Дек 03:57

Часовой пояс: UTC + 3


Вы не можете начинать темы
Вы не можете отвечать на сообщения
Вы не можете редактировать свои сообщения
Вы не можете удалять свои сообщения
Вы не можете голосовать в опросах
Вы не можете прикреплять файлы к сообщениям
Вы не можете скачивать файлы

!ВНИМАНИЕ!
Сайт не предоставляет электронные версии произведений, а занимается лишь коллекционированием и каталогизацией ссылок, присылаемых и публикуемых на форуме нашими читателями. Если вы являетесь правообладателем какого-либо представленного материала и не желаете, чтобы ссылка на него находилась в нашем каталоге, свяжитесь с нами, и мы незамедлительно удалим ее. Файлы для обмена на трекере предоставлены пользователями сайта, и администрация не несет ответственности за их содержание. Просьба не заливать файлы, защищенные авторскими правами, а также файлы нелегального содержания!