[ Сегодня идет свободное скачивание без начисления Download ]


Статистика раздачи
Нет
 
   
 
Top  
 
 
Соблазнитель / Tempted«I want to believe I can trust her...So I want to pay you to seduce my wife»- Страна: США, Австралия, Франция
Студия: Gold Circle Films, TF1 International, B.J. Films
Жанр: Триллер
Год выпуска: 2001
Продолжительность: 01:31:27-Перевод: Профессиональный (многоголосый закадровый)
Cубтитры: итальянские
Оригинальная аудиодорожка: английский-Режиссер: Билл Беннетт / Bill Bennett-В ролях: Саффрон Берроуз, Берт Рейнолдс, Майк Старр, Рэнди Остин, Питер Фасинелли, Кэрол Саттон, Эрик Мэбиус, Джордж Дицензо, Дэвид Дженсен-Описание: Узнав о своей неминуемой кончине, богач Чарли ЛеБлан поручает смышленому студенту Джимми за хорошее вознаграждение испытать на верность его молодую жену Лилли, чтобы решить, достойна ли она щедрого наследства. Симпатичный Джимми справляется с заданием, не подозревая, что у соблазненной Лилли есть свои тайные цели. Вскоре он понимает, что ему будет не так-то просто получить приз в смертельной игре, в которую он столь опрометчиво ввязался.-Доп. информация: Русская звуковая дорожка включается с пульта плеера!
Бонусы: отсутствуют
Меню: есть, язык итальянский, статичное, озвученное-Sample | IMDB | КиноПоиск-Тип релиза: DVD5 (Custom)
Контейнер: DVD-Video-Видео: PAL 16:9 (720x576) VBR Auto Letterboxed
Аудио 1: AC3, 3/2+LFE ch, 448Kbps, Delay 0 mSec [Italiano]
Аудио 2: AC3, 3/2+LFE ch, 448Kbps, Delay 0 mSec [English]
Аудио 3: AC3, 2/0 ch, 192Kbps, Delay 0 mSec [Russian_MVO]
-

Используемое ПО

1. BeLight - перекодирование ac3 - wav;
2. Adobe Audition - синхронизация;
3. BeHappy - даунмикс;
4. Minnetonka Audio Software - перекодирование wav - ac3;
5. PgcDemux - разборка оригинального DVD;
6. MuxMan - сборка DVD;
7. DVDReMake Pro - финальный проект.

Скриншоты финальных проектов

DVDInfo

Title:
Size: 4.13 Gb ( 4 329 892 KBytes ) - DVD-5
Enabled regions: 1, 2, 3, 4, 5, 6, 7, 8
VTS_01 :
Play Length: 01:31:27
Video: PAL 16:9 (720x576) VBR, Auto Letterboxed
Audio:
Italiano (Dolby AC3, 6 ch)
English (Dolby AC3, 6 ch)
Russian (Dolby AC3, 2 ch)
Subtitles:
Italiano
Italiano
VTS_02 :
Play Length: 00:00:01
Video: PAL 16:9 (720x576) VBR, Auto Letterboxed
Audio:
Not specified (Dolby AC3, 2 ch)
VTS_03 :
Play Length: 00:00:01
Video: PAL 16:9 (720x576) VBR, Auto Letterboxed
Audio:
Not specified (Dolby AC3, 6 ch)
VTS_04 :
Play Length:
Video: PAL 16:9 (720x576) VBR, Auto Letterboxed
VTS_05 :
Play Length:
Video: PAL 16:9 (720x576) VBR, Auto Letterboxed
Audio:
Italiano (Dolby AC3, 2 ch)
Menu Video:
PAL 16:9 (720x576) VBR
Auto Letterboxed
Menu Audio:
Not specified (Dolby AC3, 2 ch)
Menu Subtitles:
Not specified
Menu Italiano Language Unit :
Root Menu
Subpicture Menu
Audio Menu
Chapter (PTT) Menu

MediaInfo

General
Complete name : E:\Мои раздачи\Tempted [DVD5]\VIDEO_TS\VIDEO_TS.BUP
Format : DVD Video
Format profile : Menu
File size : 14.0 KiB
Video
ID : 224 (0xE0)
Format : MPEG Video
Format version : Version 2
Bit rate mode : Variable
Width : 720 pixels
Height : 576 pixels
Display aspect ratio : 16:9
Frame rate : 25.000 fps
Standard : PAL
Compression mode : Lossy
Audio
Format : AC-3
Format/Info : Audio Coding 3
Channel(s) : 2 channels
Sampling rate : 48.0 KHz
Compression mode : Lossy
Text
Format : RLE
Format/Info : Run-length encoding
Bit depth : 2 bits
General
Complete name : E:\Мои раздачи\Tempted [DVD5]\VIDEO_TS\VIDEO_TS.IFO
Format : DVD Video
Format profile : Menu
File size : 14.0 KiB
Video
ID : 224 (0xE0)
Format : MPEG Video
Format version : Version 2
Bit rate mode : Variable
Width : 720 pixels
Height : 576 pixels
Display aspect ratio : 16:9
Frame rate : 25.000 fps
Standard : PAL
Compression mode : Lossy
Audio
Format : AC-3
Format/Info : Audio Coding 3
Channel(s) : 2 channels
Sampling rate : 48.0 KHz
Compression mode : Lossy
Text
Format : RLE
Format/Info : Run-length encoding
Bit depth : 2 bits
General
Complete name : E:\Мои раздачи\Tempted [DVD5]\VIDEO_TS\VIDEO_TS.VOB
Format : MPEG-PS
File size : 2.12 MiB
Duration : 1mn 4s
Overall bit rate : 275 Kbps
Video
ID : 224 (0xE0)
Format : MPEG Video
Format version : Version 2
Format profile : Main@Main
Format settings, BVOP : No
Format settings, Matrix : Default
Duration : 40ms
Bit rate mode : Constant
Bit rate : 45.7 Kbps
Nominal bit rate : 8 000 Kbps
Width : 720 pixels
Height : 576 pixels
Display aspect ratio : 16:9
Frame rate : 25.000 fps
Standard : PAL
Color space : YUV
Chroma subsampling : 4:2:0
Bit depth : 8 bits
Scan type : Progressive
Scan order : Top Field First
Compression mode : Lossy
Bits/(Pixel*Frame) : 0.004
Stream size : 228 Bytes (0%)
Audio
ID : 128 (0x80)
Format : AC-3
Format/Info : Audio Coding 3
Mode extension : CM (complete main)
Duration : 1mn 4s
Bit rate mode : Constant
Bit rate : 224 Kbps
Channel(s) : 2 channels
Channel positions : Front: L R
Sampling rate : 48.0 KHz
Bit depth : 16 bits
Compression mode : Lossy
Stream size : 1.72 MiB (81%)
Text #1
ID : 32 (0x20)
Format : RLE
Format/Info : Run-length encoding
Text #2
ID : 33 (0x21)
Format : RLE
Format/Info : Run-length encoding
Menu
General
Complete name : E:\Мои раздачи\Tempted [DVD5]\VIDEO_TS\VTS_01_0.BUP
Format : DVD Video
Format profile : Program
File size : 66.0 KiB
Duration : 1h 31mn
Overall bit rate : 98 bps
Video
ID : 224 (0xE0)
Format : MPEG Video
Format version : Version 2
Duration : 1h 31mn
Bit rate mode : Variable
Width : 720 pixels
Height : 576 pixels
Display aspect ratio : 16:9
Frame rate : 25.000 fps
Standard : PAL
Compression mode : Lossy
Audio #1
ID : 128 (0x80)
Format : AC-3
Format/Info : Audio Coding 3
Duration : 1h 31mn
Channel(s) : 6 channels
Sampling rate : 48.0 KHz
Compression mode : Lossy
Language : Italian
Audio #2
ID : 129 (0x81)
Format : AC-3
Format/Info : Audio Coding 3
Duration : 1h 31mn
Channel(s) : 6 channels
Sampling rate : 48.0 KHz
Compression mode : Lossy
Language : English
Audio #3
ID : 130 (0x82)
Format : AC-3
Format/Info : Audio Coding 3
Duration : 1h 31mn
Channel(s) : 2 channels
Sampling rate : 48.0 KHz
Compression mode : Lossy
Language : Russian
Text #1
ID : 32 (0x20)
Format : RLE
Format/Info : Run-length encoding
Bit depth : 2 bits
Language : Italian
Text #2
ID : 33 (0x21)
Format : RLE
Format/Info : Run-length encoding
Bit depth : 2 bits
Language : Italian
Menu
Duration : 1h 31mn
00:00:00.000 : Chapter 1
00:00:00.480 : Chapter 2
00:01:38.640 : Chapter 3
00:04:02.520 : Chapter 4
00:09:21.000 : Chapter 5
00:12:19.080 : Chapter 6
00:21:38.400 : Chapter 7
00:27:54.840 : Chapter 8
00:36:42.840 : Chapter 9
00:38:20.040 : Chapter 10
00:39:42.120 : Chapter 11
00:43:19.200 : Chapter 12
00:47:22.200 : Chapter 13
00:50:58.080 : Chapter 14
00:52:36.240 : Chapter 15
00:54:08.400 : Chapter 16
01:00:27.360 : Chapter 17
01:04:42.120 : Chapter 18
01:06:19.560 : Chapter 19
01:08:09.240 : Chapter 20
01:09:46.800 : Chapter 21
01:13:18.120 : Chapter 22
01:17:00.240 : Chapter 23
01:20:33.240 : Chapter 24
01:22:05.760 : Chapter 25
List (Audio) : 0 / 1 / 2
List (Subtitles 4/3) : 0 / 0
List (Subtitles Wide) : 0 / 1
List (Subtitles Letterbox) : 0 / 1
List (Subtitles Pan&Scan) : 0 / 0
General
Complete name : E:\Мои раздачи\Tempted [DVD5]\VIDEO_TS\VTS_01_0.IFO
Format : DVD Video
Format profile : Program
File size : 66.0 KiB
Duration : 1h 31mn
Overall bit rate : 98 bps
Video
ID : 224 (0xE0)
Format : MPEG Video
Format version : Version 2
Duration : 1h 31mn
Bit rate mode : Variable
Width : 720 pixels
Height : 576 pixels
Display aspect ratio : 16:9
Frame rate : 25.000 fps
Standard : PAL
Compression mode : Lossy
Audio #1
ID : 128 (0x80)
Format : AC-3
Format/Info : Audio Coding 3
Duration : 1h 31mn
Channel(s) : 6 channels
Sampling rate : 48.0 KHz
Compression mode : Lossy
Language : Italian
Audio #2
ID : 129 (0x81)
Format : AC-3
Format/Info : Audio Coding 3
Duration : 1h 31mn
Channel(s) : 6 channels
Sampling rate : 48.0 KHz
Compression mode : Lossy
Language : English
Audio #3
ID : 130 (0x82)
Format : AC-3
Format/Info : Audio Coding 3
Duration : 1h 31mn
Channel(s) : 2 channels
Sampling rate : 48.0 KHz
Compression mode : Lossy
Language : Russian
Text #1
ID : 32 (0x20)
Format : RLE
Format/Info : Run-length encoding
Bit depth : 2 bits
Language : Italian
Text #2
ID : 33 (0x21)
Format : RLE
Format/Info : Run-length encoding
Bit depth : 2 bits
Language : Italian
Menu
Duration : 1h 31mn
00:00:00.000 : Chapter 1
00:00:00.480 : Chapter 2
00:01:38.640 : Chapter 3
00:04:02.520 : Chapter 4
00:09:21.000 : Chapter 5
00:12:19.080 : Chapter 6
00:21:38.400 : Chapter 7
00:27:54.840 : Chapter 8
00:36:42.840 : Chapter 9
00:38:20.040 : Chapter 10
00:39:42.120 : Chapter 11
00:43:19.200 : Chapter 12
00:47:22.200 : Chapter 13
00:50:58.080 : Chapter 14
00:52:36.240 : Chapter 15
00:54:08.400 : Chapter 16
01:00:27.360 : Chapter 17
01:04:42.120 : Chapter 18
01:06:19.560 : Chapter 19
01:08:09.240 : Chapter 20
01:09:46.800 : Chapter 21
01:13:18.120 : Chapter 22
01:17:00.240 : Chapter 23
01:20:33.240 : Chapter 24
01:22:05.760 : Chapter 25
List (Audio) : 0 / 1 / 2
List (Subtitles 4/3) : 0 / 0
List (Subtitles Wide) : 0 / 1
List (Subtitles Letterbox) : 0 / 1
List (Subtitles Pan&Scan) : 0 / 0
General
Complete name : E:\Мои раздачи\Tempted [DVD5]\VIDEO_TS\VTS_01_0.VOB
Format : MPEG-PS
File size : 43.2 MiB
Duration : 30s 0ms
Overall bit rate : 12.1 Mbps
Video
ID : 224 (0xE0)
Format : MPEG Video
Format version : Version 2
Format profile : Main@Main
Format settings, BVOP : Yes
Format settings, Matrix : Default
Duration : 30s 0ms
Bit rate mode : Variable
Bit rate : 11.8 Mbps
Width : 720 pixels
Height : 576 pixels
Display aspect ratio : 16:9
Frame rate : 25.000 fps
Standard : PAL
Color space : YUV
Chroma subsampling : 4:2:0
Bit depth : 8 bits
Compression mode : Lossy
Bits/(Pixel*Frame) : 1.142
Stream size : 42.3 MiB (98%)
Text #1
ID : 32 (0x20)
Format : RLE
Format/Info : Run-length encoding
Text #2
ID : 33 (0x21)
Format : RLE
Format/Info : Run-length encoding
Menu
General
Complete name : E:\Мои раздачи\Tempted [DVD5]\VIDEO_TS\VTS_01_1.VOB
Format : MPEG-PS
File size : 1 024 MiB
Duration : 21mn 59s
Overall bit rate : 6 510 Kbps
Video
ID : 224 (0xE0)
Format : MPEG Video
Format version : Version 2
Format profile : Main@Main
Format settings, BVOP : Yes
Format settings, Matrix : Default
Format settings, GOP : M=3, N=12
Duration : 21mn 59s
Bit rate mode : Variable
Bit rate : 5 292 Kbps
Nominal bit rate : 8 800 Kbps
Width : 720 pixels
Height : 576 pixels
Display aspect ratio : 2.35:1
Frame rate : 25.000 fps
Standard : PAL
Color space : YUV
Chroma subsampling : 4:2:0
Bit depth : 8 bits
Scan type : Progressive
Scan order : Top Field First
Compression mode : Lossy
Bits/(Pixel*Frame) : 0.510
Stream size : 832 MiB (81%)
Audio #1
ID : 128 (0x80)
Format : AC-3
Format/Info : Audio Coding 3
Mode extension : CM (complete main)
Duration : 21mn 59s
Bit rate mode : Constant
Bit rate : 448 Kbps
Channel(s) : 6 channels
Channel positions : Front: L C R, Side: L R, LFE
Sampling rate : 48.0 KHz
Bit depth : 16 bits
Compression mode : Lossy
Video delay : -80ms
Stream size : 70.5 MiB (7%)
Audio #2
ID : 129 (0x81)
Format : AC-3
Format/Info : Audio Coding 3
Mode extension : CM (complete main)
Duration : 21mn 59s
Bit rate mode : Constant
Bit rate : 448 Kbps
Channel(s) : 6 channels
Channel positions : Front: L C R, Side: L R, LFE
Sampling rate : 48.0 KHz
Bit depth : 16 bits
Compression mode : Lossy
Video delay : -80ms
Stream size : 70.5 MiB (7%)
Audio #3
ID : 130 (0x82)
Format : AC-3
Format/Info : Audio Coding 3
Mode extension : CM (complete main)
Duration : 21mn 59s
Bit rate mode : Constant
Bit rate : 192 Kbps
Channel(s) : 2 channels
Channel positions : Front: L R
Sampling rate : 48.0 KHz
Bit depth : 16 bits
Compression mode : Lossy
Video delay : -80ms
Stream size : 30.2 MiB (3%)
Menu
General
Complete name : E:\Мои раздачи\Tempted [DVD5]\VIDEO_TS\VTS_01_2.VOB
Format : MPEG-PS
File size : 1 024 MiB
Duration : 21mn 42s
Overall bit rate : 6 597 Kbps
Video
ID : 224 (0xE0)
Format : MPEG Video
Format version : Version 2
Format profile : Main@Main
Format settings, BVOP : Yes
Format settings, Matrix : Default
Format settings, GOP : M=3, N=12
Duration : 21mn 41s
Bit rate mode : Variable
Bit rate : 5 378 Kbps
Nominal bit rate : 8 800 Kbps
Width : 720 pixels
Height : 576 pixels
Display aspect ratio : 2.35:1
Frame rate : 25.000 fps
Standard : PAL
Color space : YUV
Chroma subsampling : 4:2:0
Bit depth : 8 bits
Scan type : Progressive
Scan order : Top Field First
Compression mode : Lossy
Bits/(Pixel*Frame) : 0.519
Stream size : 835 MiB (82%)
Audio #1
ID : 128 (0x80)
Format : AC-3
Format/Info : Audio Coding 3
Mode extension : CM (complete main)
Duration : 21mn 41s
Bit rate mode : Constant
Bit rate : 448 Kbps
Channel(s) : 6 channels
Channel positions : Front: L C R, Side: L R, LFE
Sampling rate : 48.0 KHz
Bit depth : 16 bits
Compression mode : Lossy
Video delay : -448ms
Stream size : 69.5 MiB (7%)
Audio #2
ID : 129 (0x81)
Format : AC-3
Format/Info : Audio Coding 3
Mode extension : CM (complete main)
Duration : 21mn 41s
Bit rate mode : Constant
Bit rate : 448 Kbps
Channel(s) : 6 channels
Channel positions : Front: L C R, Side: L R, LFE
Sampling rate : 48.0 KHz
Bit depth : 16 bits
Compression mode : Lossy
Video delay : -448ms
Stream size : 69.5 MiB (7%)
Audio #3
ID : 130 (0x82)
Format : AC-3
Format/Info : Audio Coding 3
Mode extension : CM (complete main)
Duration : 21mn 42s
Bit rate mode : Constant
Bit rate : 192 Kbps
Channel(s) : 2 channels
Channel positions : Front: L R
Sampling rate : 48.0 KHz
Bit depth : 16 bits
Compression mode : Lossy
Video delay : -448ms
Stream size : 29.8 MiB (3%)
Text
ID : 32 (0x20)
Format : RLE
Format/Info : Run-length encoding
Duration : 21mn 41s
Video delay : -40ms
Menu
General
Complete name : E:\Мои раздачи\Tempted [DVD5]\VIDEO_TS\VTS_01_3.VOB
Format : MPEG-PS
File size : 1 024 MiB
Duration : 22mn 26s
Overall bit rate : 6 379 Kbps
Video
ID : 224 (0xE0)
Format : MPEG Video
Format version : Version 2
Format profile : Main@Main
Format settings, BVOP : Yes
Format settings, Matrix : Default
Format settings, GOP : M=3, N=12
Duration : 22mn 26s
Bit rate mode : Variable
Bit rate : 5 164 Kbps
Nominal bit rate : 8 800 Kbps
Width : 720 pixels
Height : 576 pixels
Display aspect ratio : 2.35:1
Frame rate : 25.000 fps
Standard : PAL
Color space : YUV
Chroma subsampling : 4:2:0
Bit depth : 8 bits
Scan type : Progressive
Scan order : Top Field First
Compression mode : Lossy
Bits/(Pixel*Frame) : 0.498
Stream size : 829 MiB (81%)
Audio #1
ID : 128 (0x80)
Format : AC-3
Format/Info : Audio Coding 3
Mode extension : CM (complete main)
Duration : 22mn 26s
Bit rate mode : Constant
Bit rate : 448 Kbps
Channel(s) : 6 channels
Channel positions : Front: L C R, Side: L R, LFE
Sampling rate : 48.0 KHz
Bit depth : 16 bits
Compression mode : Lossy
Video delay : -528ms
Stream size : 71.9 MiB (7%)
Audio #2
ID : 129 (0x81)
Format : AC-3
Format/Info : Audio Coding 3
Mode extension : CM (complete main)
Duration : 22mn 26s
Bit rate mode : Constant
Bit rate : 448 Kbps
Channel(s) : 6 channels
Channel positions : Front: L C R, Side: L R, LFE
Sampling rate : 48.0 KHz
Bit depth : 16 bits
Compression mode : Lossy
Video delay : -528ms
Stream size : 71.9 MiB (7%)
Audio #3
ID : 130 (0x82)
Format : AC-3
Format/Info : Audio Coding 3
Mode extension : CM (complete main)
Duration : 22mn 26s
Bit rate mode : Constant
Bit rate : 192 Kbps
Channel(s) : 2 channels
Channel positions : Front: L R
Sampling rate : 48.0 KHz
Bit depth : 16 bits
Compression mode : Lossy
Video delay : -432ms
Stream size : 30.8 MiB (3%)
Menu
General
Complete name : E:\Мои раздачи\Tempted [DVD5]\VIDEO_TS\VTS_01_4.VOB
Format : MPEG-PS
File size : 1 024 MiB
Duration : 23mn 43s
Overall bit rate : 6 036 Kbps
Video
ID : 224 (0xE0)
Format : MPEG Video
Format version : Version 2
Format profile : Main@Main
Format settings, BVOP : Yes
Format settings, Matrix : Default
Format settings, GOP : M=3, N=12
Duration : 23mn 42s
Bit rate mode : Variable
Bit rate : 4 828 Kbps
Nominal bit rate : 8 800 Kbps
Width : 720 pixels
Height : 576 pixels
Display aspect ratio : 2.35:1
Frame rate : 25.000 fps
Standard : PAL
Color space : YUV
Chroma subsampling : 4:2:0
Bit depth : 8 bits
Scan type : Progressive
Scan order : Top Field First
Compression mode : Lossy
Bits/(Pixel*Frame) : 0.466
Stream size : 819 MiB (80%)
Audio #1
ID : 128 (0x80)
Format : AC-3
Format/Info : Audio Coding 3
Mode extension : CM (complete main)
Duration : 23mn 42s
Bit rate mode : Constant
Bit rate : 448 Kbps
Channel(s) : 6 channels
Channel positions : Front: L C R, Side: L R, LFE
Sampling rate : 48.0 KHz
Bit depth : 16 bits
Compression mode : Lossy
Video delay : -728ms
Stream size : 76.0 MiB (7%)
Audio #2
ID : 129 (0x81)
Format : AC-3
Format/Info : Audio Coding 3
Mode extension : CM (complete main)
Duration : 23mn 42s
Bit rate mode : Constant
Bit rate : 448 Kbps
Channel(s) : 6 channels
Channel positions : Front: L C R, Side: L R, LFE
Sampling rate : 48.0 KHz
Bit depth : 16 bits
Compression mode : Lossy
Video delay : -728ms
Stream size : 76.0 MiB (7%)
Audio #3
ID : 130 (0x82)
Format : AC-3
Format/Info : Audio Coding 3
Mode extension : CM (complete main)
Duration : 23mn 43s
Bit rate mode : Constant
Bit rate : 192 Kbps
Channel(s) : 2 channels
Channel positions : Front: L R
Sampling rate : 48.0 KHz
Bit depth : 16 bits
Compression mode : Lossy
Video delay : -664ms
Stream size : 32.6 MiB (3%)
Menu
General
Complete name : E:\Мои раздачи\Tempted [DVD5]\VIDEO_TS\VTS_01_5.VOB
Format : MPEG-PS
File size : 86.6 MiB
Duration : 1mn 36s
Overall bit rate : 7 561 Kbps
Video
ID : 224 (0xE0)
Format : MPEG Video
Format version : Version 2
Format profile : Main@Main
Format settings, BVOP : Yes
Format settings, Matrix : Default
Format settings, GOP : M=3, N=12
Duration : 1mn 35s
Bit rate mode : Variable
Bit rate : 6 322 Kbps
Nominal bit rate : 8 800 Kbps
Width : 720 pixels
Height : 576 pixels
Display aspect ratio : 2.35:1
Frame rate : 25.000 fps
Standard : PAL
Color space : YUV
Chroma subsampling : 4:2:0
Bit depth : 8 bits
Scan type : Progressive
Scan order : Top Field First
Compression mode : Lossy
Bits/(Pixel*Frame) : 0.610
Stream size : 72.1 MiB (83%)
Audio #1
ID : 128 (0x80)
Format : AC-3
Format/Info : Audio Coding 3
Mode extension : CM (complete main)
Duration : 1mn 36s
Bit rate mode : Constant
Bit rate : 448 Kbps
Channel(s) : 6 channels
Channel positions : Front: L C R, Side: L R, LFE
Sampling rate : 48.0 KHz
Bit depth : 16 bits
Compression mode : Lossy
Video delay : -440ms
Stream size : 5.13 MiB (6%)
Audio #2
ID : 129 (0x81)
Format : AC-3
Format/Info : Audio Coding 3
Mode extension : CM (complete main)
Duration : 1mn 36s
Bit rate mode : Constant
Bit rate : 448 Kbps
Channel(s) : 6 channels
Channel positions : Front: L C R, Side: L R, LFE
Sampling rate : 48.0 KHz
Bit depth : 16 bits
Compression mode : Lossy
Video delay : -440ms
Stream size : 5.13 MiB (6%)
Audio #3
ID : 130 (0x82)
Format : AC-3
Format/Info : Audio Coding 3
Mode extension : CM (complete main)
Duration : 1mn 36s
Bit rate mode : Constant
Bit rate : 192 Kbps
Channel(s) : 2 channels
Channel positions : Front: L R
Sampling rate : 48.0 KHz
Bit depth : 16 bits
Compression mode : Lossy
Video delay : -344ms
Stream size : 2.20 MiB (3%)
Text
ID : 33 (0x21)
Format : RLE
Format/Info : Run-length encoding
Menu
General
Complete name : E:\Мои раздачи\Tempted [DVD5]\VIDEO_TS\VTS_02_0.BUP
Format : DVD Video
Format profile : Program
File size : 18.0 KiB
Duration : 1s 440ms
Overall bit rate : 102 Kbps
Video
ID : 224 (0xE0)
Format : MPEG Video
Format version : Version 2
Duration : 1s 440ms
Bit rate mode : Variable
Width : 720 pixels
Height : 576 pixels
Display aspect ratio : 16:9
Frame rate : 25.000 fps
Standard : PAL
Compression mode : Lossy
Audio
ID : 128 (0x80)
Format : AC-3
Format/Info : Audio Coding 3
Duration : 1s 440ms
Channel(s) : 2 channels
Sampling rate : 48.0 KHz
Compression mode : Lossy
Menu #1
Duration : 1s 440ms
00:00:00.000 : Chapter 1
00:00:00.480 : Chapter 2
00:00:00.960 : Chapter 3
List (Audio) : 0
Menu #2
Duration : 1s 440ms
00:00:00.000 : Chapter 1
01:00:00.000 : Chapter 2
02:00:00.000 : Chapter 3
List (Audio) : 0
General
Complete name : E:\Мои раздачи\Tempted [DVD5]\VIDEO_TS\VTS_02_0.IFO
Format : DVD Video
Format profile : Program
File size : 18.0 KiB
Duration : 1s 440ms
Overall bit rate : 102 Kbps
Video
ID : 224 (0xE0)
Format : MPEG Video
Format version : Version 2
Duration : 1s 440ms
Bit rate mode : Variable
Width : 720 pixels
Height : 576 pixels
Display aspect ratio : 16:9
Frame rate : 25.000 fps
Standard : PAL
Compression mode : Lossy
Audio
ID : 128 (0x80)
Format : AC-3
Format/Info : Audio Coding 3
Duration : 1s 440ms
Channel(s) : 2 channels
Sampling rate : 48.0 KHz
Compression mode : Lossy
Menu #1
Duration : 1s 440ms
00:00:00.000 : Chapter 1
00:00:00.480 : Chapter 2
00:00:00.960 : Chapter 3
List (Audio) : 0
Menu #2
Duration : 1s 440ms
00:00:00.000 : Chapter 1
01:00:00.000 : Chapter 2
02:00:00.000 : Chapter 3
List (Audio) : 0
General
Complete name : E:\Мои раздачи\Tempted [DVD5]\VIDEO_TS\VTS_02_0.VOB
Format : MPEG-PS
File size : 10.0 KiB
Duration : 40ms
Overall bit rate : 2 048 Kbps
Video
ID : 224 (0xE0)
Format : MPEG Video
Format version : Version 2
Format profile : Main@Main
Format settings, BVOP : No
Format settings, Matrix : Default
Duration : 40ms
Bit rate mode : Constant
Bit rate : 8 000 Kbps
Width : 720 pixels
Height : 576 pixels
Display aspect ratio : 16:9
Frame rate : 25.000 fps
Standard : PAL
Color space : YUV
Chroma subsampling : 4:2:0
Bit depth : 8 bits
Scan type : Progressive
Scan order : Top Field First
Compression mode : Lossy
Bits/(Pixel*Frame) : 0.772
Stream size : 39.1 KiB
Menu
General
Complete name : E:\Мои раздачи\Tempted [DVD5]\VIDEO_TS\VTS_02_1.VOB
Format : MPEG-PS
File size : 90.0 KiB
Duration : 40ms
Overall bit rate : 18.4 Mbps
Video
ID : 224 (0xE0)
Format : MPEG Video
Format version : Version 2
Format profile : Main@Main
Format settings, BVOP : No
Format settings, Matrix : Default
Format settings, GOP : N=1
Duration : 40ms
Bit rate mode : Constant
Bit rate : 8 000 Kbps
Width : 720 pixels
Height : 576 pixels
Display aspect ratio : 16:9
Frame rate : 25.000 fps
Standard : PAL
Color space : YUV
Chroma subsampling : 4:2:0
Bit depth : 8 bits
Scan type : Progressive
Scan order : Top Field First
Compression mode : Lossy
Bits/(Pixel*Frame) : 0.772
Stream size : 39.1 KiB (43%)
Menu
General
Complete name : E:\Мои раздачи\Tempted [DVD5]\VIDEO_TS\VTS_03_0.BUP
Format : DVD Video
Format profile : Program
File size : 14.0 KiB
Duration : 1s 440ms
Overall bit rate : 79.6 Kbps
Video
ID : 224 (0xE0)
Format : MPEG Video
Format version : Version 2
Duration : 1s 440ms
Bit rate mode : Variable
Width : 720 pixels
Height : 576 pixels
Display aspect ratio : 16:9
Frame rate : 25.000 fps
Standard : PAL
Compression mode : Lossy
Audio
ID : 128 (0x80)
Format : AC-3
Format/Info : Audio Coding 3
Duration : 1s 440ms
Channel(s) : 6 channels
Sampling rate : 48.0 KHz
Compression mode : Lossy
Menu
Duration : 1s 440ms
00:00:00.000 : Chapter 1
00:00:00.480 : Chapter 2
00:00:00.960 : Chapter 3
List (Audio) : 0
General
Complete name : E:\Мои раздачи\Tempted [DVD5]\VIDEO_TS\VTS_03_0.IFO
Format : DVD Video
Format profile : Program
File size : 14.0 KiB
Duration : 1s 440ms
Overall bit rate : 79.6 Kbps
Video
ID : 224 (0xE0)
Format : MPEG Video
Format version : Version 2
Duration : 1s 440ms
Bit rate mode : Variable
Width : 720 pixels
Height : 576 pixels
Display aspect ratio : 16:9
Frame rate : 25.000 fps
Standard : PAL
Compression mode : Lossy
Audio
ID : 128 (0x80)
Format : AC-3
Format/Info : Audio Coding 3
Duration : 1s 440ms
Channel(s) : 6 channels
Sampling rate : 48.0 KHz
Compression mode : Lossy
Menu
Duration : 1s 440ms
00:00:00.000 : Chapter 1
00:00:00.480 : Chapter 2
00:00:00.960 : Chapter 3
List (Audio) : 0
General
Complete name : E:\Мои раздачи\Tempted [DVD5]\VIDEO_TS\VTS_03_1.VOB
Format : MPEG-PS
File size : 30.0 KiB
Duration : 40ms
Overall bit rate : 6 144 Kbps
Video
ID : 224 (0xE0)
Format : MPEG Video
Format version : Version 2
Format profile : Main@Main
Format settings, BVOP : No
Format settings, Matrix : Default
Format settings, GOP : N=1
Duration : 40ms
Bit rate mode : Constant
Bit rate : 8 000 Kbps
Width : 720 pixels
Height : 576 pixels
Display aspect ratio : 16:9
Frame rate : 25.000 fps
Standard : PAL
Color space : YUV
Chroma subsampling : 4:2:0
Bit depth : 8 bits
Scan type : Progressive
Scan order : Top Field First
Compression mode : Lossy
Bits/(Pixel*Frame) : 0.772
Stream size : 39.1 KiB
Menu
General
Complete name : E:\Мои раздачи\Tempted [DVD5]\VIDEO_TS\VTS_04_0.BUP
Format : DVD Video
Format profile : Program
File size : 18.0 KiB
Duration : 480ms
Overall bit rate : 307 Kbps
Video
ID : 224 (0xE0)
Format : MPEG Video
Format version : Version 2
Duration : 480ms
Bit rate mode : Variable
Width : 720 pixels
Height : 576 pixels
Display aspect ratio : 16:9
Frame rate : 25.000 fps
Standard : PAL
Compression mode : Lossy
Menu
Duration : 480ms
00:00:00.000 : Chapter 1
General
Complete name : E:\Мои раздачи\Tempted [DVD5]\VIDEO_TS\VTS_04_0.IFO
Format : DVD Video
Format profile : Program
File size : 18.0 KiB
Duration : 480ms
Overall bit rate : 307 Kbps
Video
ID : 224 (0xE0)
Format : MPEG Video
Format version : Version 2
Duration : 480ms
Bit rate mode : Variable
Width : 720 pixels
Height : 576 pixels
Display aspect ratio : 16:9
Frame rate : 25.000 fps
Standard : PAL
Compression mode : Lossy
Menu
Duration : 480ms
00:00:00.000 : Chapter 1
General
Complete name : E:\Мои раздачи\Tempted [DVD5]\VIDEO_TS\VTS_04_0.VOB
Format : MPEG-PS
File size : 30.0 KiB
Duration : 40ms
Overall bit rate : 6 144 Kbps
Video
ID : 224 (0xE0)
Format : MPEG Video
Format version : Version 2
Format profile : Main@Main
Format settings, BVOP : No
Format settings, Matrix : Default
Format settings, GOP : N=1
Duration : 40ms
Bit rate mode : Constant
Bit rate : 8 000 Kbps
Width : 720 pixels
Height : 576 pixels
Display aspect ratio : 16:9
Frame rate : 25.000 fps
Standard : PAL
Color space : YUV
Chroma subsampling : 4:2:0
Bit depth : 8 bits
Scan type : Progressive
Scan order : Top Field First
Compression mode : Lossy
Bits/(Pixel*Frame) : 0.772
Stream size : 39.1 KiB
Menu
General
Complete name : E:\Мои раздачи\Tempted [DVD5]\VIDEO_TS\VTS_04_1.VOB
Format : MPEG-PS
File size : 10.0 KiB
Duration : 40ms
Overall bit rate : 2 048 Kbps
Video
ID : 224 (0xE0)
Format : MPEG Video
Format version : Version 2
Format profile : Main@Main
Format settings, BVOP : No
Format settings, Matrix : Default
Duration : 40ms
Bit rate mode : Constant
Bit rate : 8 000 Kbps
Width : 720 pixels
Height : 576 pixels
Display aspect ratio : 16:9
Frame rate : 25.000 fps
Standard : PAL
Color space : YUV
Chroma subsampling : 4:2:0
Bit depth : 8 bits
Scan type : Progressive
Scan order : Top Field First
Compression mode : Lossy
Bits/(Pixel*Frame) : 0.772
Stream size : 39.1 KiB
Menu
General
Complete name : E:\Мои раздачи\Tempted [DVD5]\VIDEO_TS\VTS_05_0.BUP
Format : DVD Video
Format profile : Program
File size : 12.0 KiB
Duration : 960ms
Overall bit rate : 102 Kbps
Video
ID : 224 (0xE0)
Format : MPEG Video
Format version : Version 2
Duration : 960ms
Bit rate mode : Variable
Width : 720 pixels
Height : 576 pixels
Display aspect ratio : 16:9
Frame rate : 25.000 fps
Standard : PAL
Compression mode : Lossy
Audio
ID : 128 (0x80)
Format : AC-3
Format/Info : Audio Coding 3
Duration : 960ms
Channel(s) : 2 channels
Sampling rate : 48.0 KHz
Compression mode : Lossy
Language : Italian
Menu
Duration : 960ms
00:00:00.000 : Chapter 1
00:00:00.480 : Chapter 2
List (Audio) : 0
General
Complete name : E:\Мои раздачи\Tempted [DVD5]\VIDEO_TS\VTS_05_0.IFO
Format : DVD Video
Format profile : Program
File size : 12.0 KiB
Duration : 960ms
Overall bit rate : 102 Kbps
Video
ID : 224 (0xE0)
Format : MPEG Video
Format version : Version 2
Duration : 960ms
Bit rate mode : Variable
Width : 720 pixels
Height : 576 pixels
Display aspect ratio : 16:9
Frame rate : 25.000 fps
Standard : PAL
Compression mode : Lossy
Audio
ID : 128 (0x80)
Format : AC-3
Format/Info : Audio Coding 3
Duration : 960ms
Channel(s) : 2 channels
Sampling rate : 48.0 KHz
Compression mode : Lossy
Language : Italian
Menu
Duration : 960ms
00:00:00.000 : Chapter 1
00:00:00.480 : Chapter 2
List (Audio) : 0
General
Complete name : E:\Мои раздачи\Tempted [DVD5]\VIDEO_TS\VTS_05_1.VOB
Format : MPEG-PS
File size : 20.0 KiB
Duration : 40ms
Overall bit rate : 4 096 Kbps
Video
ID : 224 (0xE0)
Format : MPEG Video
Format version : Version 2
Format profile : Main@Main
Format settings, BVOP : No
Format settings, Matrix : Default
Format settings, GOP : N=1
Duration : 40ms
Bit rate mode : Constant
Bit rate : 8 000 Kbps
Width : 720 pixels
Height : 576 pixels
Display aspect ratio : 16:9
Frame rate : 25.000 fps
Standard : PAL
Color space : YUV
Chroma subsampling : 4:2:0
Bit depth : 8 bits
Scan type : Progressive
Scan order : Top Field First
Compression mode : Lossy
Bits/(Pixel*Frame) : 0.772
Stream size : 39.1 KiB
Menu

Скриншоты меню

Скриншоты

Covers

[Цитировать]



Показать сообщения:    

Текущее время: 07-Дек 00:54

Часовой пояс: UTC + 3


Вы не можете начинать темы
Вы не можете отвечать на сообщения
Вы не можете редактировать свои сообщения
Вы не можете удалять свои сообщения
Вы не можете голосовать в опросах
Вы не можете прикреплять файлы к сообщениям
Вы не можете скачивать файлы

!ВНИМАНИЕ!
Сайт не предоставляет электронные версии произведений, а занимается лишь коллекционированием и каталогизацией ссылок, присылаемых и публикуемых на форуме нашими читателями. Если вы являетесь правообладателем какого-либо представленного материала и не желаете, чтобы ссылка на него находилась в нашем каталоге, свяжитесь с нами, и мы незамедлительно удалим ее. Файлы для обмена на трекере предоставлены пользователями сайта, и администрация не несет ответственности за их содержание. Просьба не заливать файлы, защищенные авторскими правами, а также файлы нелегального содержания!