[ Сегодня идет свободное скачивание без начисления Download ]


Статистика раздачи
Нет
 
   
 
 
 
-WWF WrestleMania XII (1996)- -Год выпуска: March 31, 1996
Вид спорта: Рестлинг
Участники: WWF Superstars
Продолжительность: 02:48:26
Комментарий: Профессиональный (двухголосый)
Язык комментариев: Английский (оригинал)
Описание: WWА Pay-Per-View WrestleMania 12--Страна: United States of America
Город/Штат проведения: Anaheim, California
Арена проведения: Arrowhead Pond--Описание:
Рестлмания XII была двенадцатой Рестлманией в истории. Шоу проходило 31 марта 1996 года в Анахайме, Калифорния в «Арроухед Понд». Шоу комментировали Винс МакМэхон и Джерри «Король» Лоулер
Главным Событием этой Рестлмании стал новый матч для ВВФ, который гарантированно будет длиться 60 минут. Это было объявлено Президентом ВВФ, по сюжету, «Буяном» Родди Пайпером на «Raw». В матче должен был участвовать Чемпион ВВФ Брет «Киллер» Харт, который защитил свой Титул в матче против Дизеля на ППВ В Твоём Доме в феврале 1996 года, и первый претендент на Титул Шон Майклз, который выиграл Королевскую Битву 1996 и затем победил Оуэна Харта на ППВ В Твоём Доме в феврале 1996 года за право участвовать в первом в истории матче Железный Человек; победителем становился тот у кого было больше побед за 60 минут.
--Факты
- Матч между Бретом «Киллером» Хартом и Шоном Майклзом стал самым долгим в истории Рестлманий.
- Лого Рестлмании XII было пародией на Лого 20th Century Fox.
- Это была единственная Рестлмания на которой состоялся только один матч за Титул.
- Это была единственная Рестлмания на которой Лого было изображено на ринге. После шоу, это Лого вырезали и продали через магазин WWF.
--Качество: DVDRip
Формат: AVI
Видео кодек: Xvid
Аудио кодек: MPEG Audio Layer 3
Видео: 512x384 29.97fps 1542Kbps, 0.262 bpp
Аудио: 48000Hz stereo 192Kbps-

Кард

-1. Camp Cornette (Vader, Owen Hart and The British Bulldog) (w/ Jim Cornette) vs. Yokozuna, Jake Roberts and Ahmed Johnson (w/ Mr. Fuji) Six-man tag team match--2. Steve Austin (w/ Ted DiBiase) vs. Savio Vega--3. The Ultimate Warrior vs. Hunter Hearst Helmsley (w/ Sable)--4. The Undertaker (w/ Paul Bearer) vs. The Diesel--5. Roddy Piper vs. Goldust (w/ Marlena) Hollywood Backlot Braw--6. Bret Hart (c) vs. Shawn Shawn Michaels (w/ Jose Lothario) Iron Man match for the WWF Championship-
-

Скриншоты

MediaInfo

Общее
Полное имя : E:\Записанные\Рестлинг\Complete.Wrestlemania.Pack\Wrestlemania 12\WWF Wrestlemania 12.avi
Формат : AVI
Формат/Информация : Audio Video Interleave
Профиль формата : OpenDML
Размер файла : 2,05 Гбайт
Продолжительность : 2 ч. 48 м.
Общий поток : 1745 Кбит/сек
Программа кодирования : VirtualDubMod 1.5.4.1 (build 2178/release)
Библиотека кодирования : VirtualDubMod build 2178/release
Видео
Идентификатор : 0
Формат : MPEG-4 Visual
Профиль формата : Advanced [email protected]
Параметр BVOP формата : 1
Параметр QPel формата : Нет
Параметр GMC формата : Без точки перехода
Параметр матрицы формата : Выборочная
Идентификатор кодека : XVID
Идентификатор кодека/Подсказка : XviD
Продолжительность : 2 ч. 48 м.
Битрейт : 1542 Кбит/сек
Ширина : 512 пикселей
Высота : 384 пикселя
Соотношение сторон : 4:3
Частота кадров : 29,970 кадров/сек
Цветовое пространство : YUV
Субдискретизация насыщенности : 4:2:0
Битовая глубина : 8 бит
Тип развёртки : Прогрессивная
Метод сжатия : С потерями
Бит/(Пиксели*Кадры) : 0.262
Размер потока : 1,81 Гбайт (88%)
Библиотека кодирования : XviD 1.2.1 (UTC 2008-12-04)
Аудио
Идентификатор : 1
Формат : MPEG Audio
Версия формата : Version 1
Профиль формата : Layer 3
Режим : Joint stereo
Расширение режима : MS Stereo
Идентификатор кодека : 55
Идентификатор кодека/Подсказка : MP3
Продолжительность : 2 ч. 48 м.
Вид битрейта : Постоянный
Битрейт : 192 Кбит/сек
Каналы : 2 канала
Частота : 48,0 КГц
Метод сжатия : С потерями
Размер потока : 231 Мбайт (11%)
Выравнивание : Соединение по промежуткам
Продолжительность промежутка : 67 мс. (2,00 видеокадра)
Время предзагрузки промежутка : 504 мс.
Библиотека кодирования : LAME3.98r
Настройки программы : -m j -V 4 -q 2 -lowpass 18.6 -b 192
Язык : English

[Цитировать]



Показать сообщения:    

Текущее время: 04-Дек 07:00

Часовой пояс: UTC + 3


Вы не можете начинать темы
Вы не можете отвечать на сообщения
Вы не можете редактировать свои сообщения
Вы не можете удалять свои сообщения
Вы не можете голосовать в опросах
Вы не можете прикреплять файлы к сообщениям
Вы не можете скачивать файлы

!ВНИМАНИЕ!
Сайт не предоставляет электронные версии произведений, а занимается лишь коллекционированием и каталогизацией ссылок, присылаемых и публикуемых на форуме нашими читателями. Если вы являетесь правообладателем какого-либо представленного материала и не желаете, чтобы ссылка на него находилась в нашем каталоге, свяжитесь с нами, и мы незамедлительно удалим ее. Файлы для обмена на трекере предоставлены пользователями сайта, и администрация не несет ответственности за их содержание. Просьба не заливать файлы, защищенные авторскими правами, а также файлы нелегального содержания!