[ Сегодня идет свободное скачивание без начисления Download ]


Статистика раздачи
Нет
 
   
 
 
 
Дети кукурузы 2: Последняя жертва / Children of the corn II: The final sacrifice«These children are home alone, too. But their parents won't be coming back.»
Страна: США
Производство: Corn Cobb Productions, Dimension Films, Fifth Avenue Entertainment, Trans Atlantic Entertainment
Год выпуска: 1992
Жанр: Ужасы, Триллер
Режиссёр: Дэвид Прайс
В ролях: Теренс Нокс, Пол Шеррер, Райан Боллмэн, Кристи Кларк, Розалинд Аллен, Нед Ромеро, Джо Инскоу, Джон Беннас, Эд Грейди
Перевод: Профессиональный (двухголосый, закадровый)
Субтитры: Нет
Описание: После того, как кошмар в Гатлине стал достоянием общественности, оставшиеся в живых дети были вывезены из города и распределены по детским домам и приютам. На горяченькое приехал и журналист Джон Гаррет вместе со своим сыном Дэниэлом. Однако городок для своего пребывания они выбрали не очень удачно — в нем заново начал поднимать голову кукурузный культ Того, Кто Ходит Между Стеблями. На этот раз основателем культа и новым пророком стал паренек Майца…

Качество: DVDRip
Продолжительность: 01:27:18
Формат: AVI
Разрешение экрана: 320x240
Видео кодек: DivX
Аудио кодек: MP3
Свойства видео: 320x240 (1.33:1), 25 fps, DivX ~346 kbps avg, 0.18 bit/pixel
Свойства аудио: 44.1 kHz, MPEG Layer 3, 2 ch, ~112.00 kbps avg

Media Info

Видео
Идентификатор                            : 0
Формат                                   : MPEG-4 Visual
Профиль формата                          : Simple@L1
Параметр BVOP формата                    : Нет
Параметр QPel формата                    : Нет
Параметр GMC формата                     : Без точки перехода
Параметр матрицы формата                 : Default (H.263)
Идентификатор кодека                     : DX50
Идентификатор кодека/Подсказка           : DivX 5
Продолжительность                        : 1 ч. 27 м.
Битрейт                                  : 346 Кбит/сек
Ширина                                   : 320 пикселей
Высота                                   : 240 пикселей
Соотношение сторон                       : 4:3
Частота кадров                           : 25,000 кадров/сек
Цветовое пространство                    : YUV
Субдискретизация насыщенности            : 4:2:0
Битовая глубина                          : 8 бит
Тип развёртки                            : Прогрессивная
Метод сжатия                             : С потерями
Бит/(Пиксели*Кадры)                      : 0.180
Размер потока                            : 216 Мбайт (74%)
Библиотека кодирования                   : Lavc50.0.0
Аудио
Идентификатор                            : 1
Формат                                   : MPEG Audio
Версия формата                           : Version 1
Профиль формата                          : Layer 3
Режим                                    : Dual mono
Идентификатор кодека                     : 55
Идентификатор кодека/Подсказка           : MP3
Продолжительность                        : 1 ч. 27 м.
Вид битрейта                             : Постоянный
Битрейт                                  : 112 Кбит/сек
Каналы                                   : 2 канала
Частота                                  : 44,1 КГц
Метод сжатия                             : С потерями
Размер потока                            : 69,9 Мбайт (24%)
Выравнивание                             : Соединение по промежуткам
Продолжительность промежутка             : 26  мс. (0,65 видеокадр)
Время предзагрузки промежутка            : 809  мс.

Скриншоты



[Цитировать]

Смотрел этот фильм еще на касете в детстве, класс)! Спасибо Таня

[Цитировать]



Показать сообщения:    

Текущее время: 08-Дек 12:58

Часовой пояс: UTC + 3


Вы не можете начинать темы
Вы не можете отвечать на сообщения
Вы не можете редактировать свои сообщения
Вы не можете удалять свои сообщения
Вы не можете голосовать в опросах
Вы не можете прикреплять файлы к сообщениям
Вы не можете скачивать файлы

!ВНИМАНИЕ!
Сайт не предоставляет электронные версии произведений, а занимается лишь коллекционированием и каталогизацией ссылок, присылаемых и публикуемых на форуме нашими читателями. Если вы являетесь правообладателем какого-либо представленного материала и не желаете, чтобы ссылка на него находилась в нашем каталоге, свяжитесь с нами, и мы незамедлительно удалим ее. Файлы для обмена на трекере предоставлены пользователями сайта, и администрация не несет ответственности за их содержание. Просьба не заливать файлы, защищенные авторскими правами, а также файлы нелегального содержания!