[ Сегодня идет свободное скачивание без начисления Download ]


Статистика раздачи
Нет
 
   
 
Top  
 
 
-Хичкок / Hitchcock (2012) HDRip
«История о фильме, который потряс мир»
- Русское название: Хичкок
Оригинальное название: Hitchcock
Год выпуска: 2012
Производство: США, Cold Spring Pictures, Fox Searchlight Pictures, The Montecito Picture Company
Жанр: Драма, История, Биография
Перевод: Профессиональный (полное дублирование) [Лицензия]
Субтитры: Отсутствуют
Режиссер: Саша Джерваси
Актеры: Энтони Хопкинс, Хелен Миррен, Скарлетт Йоханссон, Тони Коллетт, Дэнни Хьюстон, Джессика Бил, Майкл Стулбарг, Майкл Уинкотт, Джеймс Д’Арси, Ричард Портноу, Кертвуд Смит, Ральф Маччио, Кай Леннокс, Тара Саммерс, Уоллес Лэнгэм, Пол Шакман, Карри Грэм, Спенсер Гаррет, Терри Роудс
Описание фильма:
Известный режиссер отваживается на эксперимент: отойти от ставших его визитной карточкой дорогостоящих фильмов в жанре «саспенс» и снять скромную, к тому же черно-белую картину «Психо». В процессе работы будущий «мастер страха» вглядывается в темные бездны человеческой души, чтобы найти те нервные окончания, прикасаясь к которым он мог бы, как по клавишам, сыграть на эмоциях зрителя настоящую симфонию ужаса.-
Дата мировой премьеры: 1 ноября 2012
Дата российской премьеры: 21 февраля 2013, «Двадцатый Век Фокс СНГ»
Дата выхода DVD релиза: 4 апреля 2013, «Двадцатый Век Фокс СНГ»
Дата выхода Blu-Ray релиза: 4 апреля 2013, «Двадцатый Век Фокс СНГ»-Продолжительность: 01:38:20
Качество видео: HDRip
Видеокодек: XviD
Битрейт видео: 918 Кбит/сек
Размер кадра: 688x288
Аудио : Русский, MP3, 2 ch, 128 Кбит/сек

MediaInfo

Общее
Полное имя                               : C:\Users\Admin\Downloads\Hitchcock (2012) HDRip.avi
Формат                                   : AVI
Формат/Информация                        : Audio Video Interleave
Размер файла                             : 742 Мбайт
Продолжительность                        : 1 ч. 38 м.
Общий поток                              : 1055 Кбит/сек
Программа кодирования                    : VirtualDubMod 1.5.10.2 (build 2540/release)
Библиотека кодирования                   : VirtualDubMod build 2540/release
Видео
Идентификатор                            : 0
Формат                                   : MPEG-4 Visual
Профиль формата                          : Advanced Simple@L5
Параметр BVOP формата                    : 1
Параметр QPel формата                    : Нет
Параметр GMC формата                     : Без точки перехода
Параметр матрицы формата                 : Выборочная
Идентификатор кодека                     : XVID
Идентификатор кодека/Подсказка           : XviD
Продолжительность                        : 1 ч. 38 м.
Битрейт                                  : 918 Кбит/сек
Ширина                                   : 688 пикселей
Высота                                   : 288 пикселей
Соотношение сторон                       : 2,40:1
Частота кадров                           : 23,976 кадра/сек
Цветовое пространство                    : YUV
Субдискретизация насыщенности            : 4:2:0
Битовая глубина                          : 8 бит
Тип развёртки                            : Прогрессивная
Метод сжатия                             : С потерями
Бит/(Пиксели*Кадры)                      : 0.193
Размер потока                            : 646 Мбайт (87%)
Библиотека кодирования                   : XviD 1.2.1 (UTC 2008-12-04)
Аудио
Идентификатор                            : 1
Формат                                   : MPEG Audio
Версия формата                           : Version 1
Профиль формата                          : Layer 3
Идентификатор кодека                     : 55
Идентификатор кодека/Подсказка           : MP3
Продолжительность                        : 1 ч. 38 м.
Вид битрейта                             : Постоянный
Битрейт                                  : 128 Кбит/сек
Каналы                                   : 2 канала
Частота                                  : 48,0 КГц
Метод сжатия                             : С потерями
Размер потока                            : 90,0 Мбайт (12%)
Выравнивание                             : Соединение по промежуткам
Продолжительность промежутка             : 42  мс. (1,00 видеокадр)
Время предзагрузки промежутка            : 504  мс.
Библиотека кодирования                   : LAME3.97
Настройки программы                      : -m s -V 4 -q 2 -lowpass 17 -b 128
Скриншоты:

-Время раздачи: 9.00 - 23.00 (по мере возможности...)

[Цитировать]

Топик был перенесен из форума Новинки кинопроката в форум Драма
Henkok



Показать сообщения:    

Текущее время: 08-Дек 01:13

Часовой пояс: UTC + 3


Вы не можете начинать темы
Вы не можете отвечать на сообщения
Вы не можете редактировать свои сообщения
Вы не можете удалять свои сообщения
Вы не можете голосовать в опросах
Вы не можете прикреплять файлы к сообщениям
Вы не можете скачивать файлы

!ВНИМАНИЕ!
Сайт не предоставляет электронные версии произведений, а занимается лишь коллекционированием и каталогизацией ссылок, присылаемых и публикуемых на форуме нашими читателями. Если вы являетесь правообладателем какого-либо представленного материала и не желаете, чтобы ссылка на него находилась в нашем каталоге, свяжитесь с нами, и мы незамедлительно удалим ее. Файлы для обмена на трекере предоставлены пользователями сайта, и администрация не несет ответственности за их содержание. Просьба не заливать файлы, защищенные авторскими правами, а также файлы нелегального содержания!