[ Today is free to download without increasing Download ]

DL-List and Torrent activity
-Смотритель / Vicev?rten (2012) DVDRip-- Русское название: Смотритель
Оригинальное название: Vicev?rten
Год выпуска: 2012
Страна: Дания | Zentropa Productions
Жанр: Драма-Описание фильма:
Главный герой — смотритель и неудачник, у которого есть парочка дружков и непутевый сын, вышедший из тюрьмы. Но однажды в пустой квартире он находит молодую и красивую девушку, завернутую в занавеску. Она, как подарок с небес, остается с ним жить и пробуждает в нем неведомые чувства — может быть, любовь?-Режиссер: Катрин Видерманн
Актеры: Ларс Миккельсен, Джули Зангенберг, Петер Плаугборг, Николай Коперникус, Томми Кентер, Дитте Граболь, Лейф Сильвестр, Якоб Гредстед, Франк Тиль, Синье Скоу...
Продолжительность: 01:23:55
Перевод: Одноголосый закадровый [viRys]

Дата мировой премьеры: 22 сентября 2012
Видеокодек: Xvid
Битрейт видео: ~1871 kbps
Размер кадра: 720*304
Качество видео: DVDRip
Аудиокодек: AC3 5.1
Битрейт аудио: 448 Kbps


Complete name                            : :\\Smotritel.2012.L1.DVDRip.1400MB.avi
Format                                   : AVI
Format/Info                              : Audio Video Interleave
File size                                : 1.37 GiB
Duration                                 : 1h 23mn
Overall bit rate                         : 2 329 Kbps
Writing application                      : VirtualDubMod (build 2540/release)
Writing library                          : VirtualDubMod build 2540/release
ID                                       : 0
Format                                   : MPEG-4 Visual
Format profile                           : Advanced Simple@L5
Format settings, BVOP                    : 2
Format settings, QPel                    : No
Format settings, GMC                     : No warppoints
Format settings, Matrix                  : Default (H.263)
Muxing mode                              : Packed bitstream
Codec ID                                 : XVID
Codec ID/Hint                            : XviD
Duration                                 : 1h 23mn
Bit rate                                 : 1 871 Kbps
Width                                    : 720 pixels
Height                                   : 304 pixels
Display aspect ratio                     : 2.35:1
Frame rate                               : 25.000 fps
Color space                              : YUV
Chroma subsampling                       : 4:2:0
Bit depth                                : 8 bits
Scan type                                : Progressive
Compression mode                         : Lossy
Bits/(Pixel*Frame)                       : 0.342
Stream size                              : 1.10 GiB (80%)
Writing library                          : XviD 64
ID                                       : 1
Format                                   : AC-3
Format/Info                              : Audio Coding 3
Mode extension                           : CM (complete main)
Format settings, Endianness              : Big
Codec ID                                 : 2000
Duration                                 : 1h 23mn
Bit rate mode                            : Constant
Bit rate                                 : 448 Kbps
Channel(s)                               : 6 channels
Channel positions                        : Front: L C R, Side: L R, LFE
Sampling rate                            : 48.0 KHz
Bit depth                                : 16 bits
Compression mode                         : Lossy
Stream size                              : 269 MiB (19%)
Alignment                                : Split accross interleaves
Interleave, duration                     : 40 ms (1.00 video frame)
Interleave, preload duration             : 500 ms
Скриншоты: Время раздачи: 24/7 до 3-х скачавших


Display posts:    

Current time is: 27-Oct 17:50

All times are UTC + 3

You cannot post new topics in this forum
You cannot reply to topics in this forum
You cannot edit your posts in this forum
You cannot delete your posts in this forum
You cannot vote in polls in this forum
You cannot attach files in this forum
You cannot download files in this forum

The site does not give electronic versions of products, and is engaged only in a collecting and cataloguing of the references sent and published at a forum by our readers. If you are the legal owner of any submitted material and do not wish that the reference to it was in our catalogue, contact us and we shall immediately remove her. Files for an exchange on tracker are given by users of a site, and the administration does not bear the responsibility for their maintenance. The request to not fill in the files protected by copyrights, and also files of the illegal maintenance!