[ Сегодня идет свободное скачивание без начисления Download ]


Статистика раздачи
Нет
 
   
 
Top  
 
 
-Лоре / Lore (2012) HDRip
«Когда Ваша жизнь - ложь, кому Вы можете доверять?»
-- Русское название: Лоре
Оригинальное название: Lore
Год выпуска: 2012
Страна: Германия, Австралия, Великобритания
Жанр: Драма, Военный-Описание фильма:
Германия. 1945 год. Самый конец войны. Группа детей отправляется в путешествие по разоренной Германии, чтобы добраться до бабушки, которая живет на севере страны Старшая, Лоре, осталась одна с четырьмя младшими братьями и сестрой после того, как их родители, члены СС, были арестованы союзниками. Это путешествие покажет детям настоящий реальный мир и последствия действий их родителей. После того, как они встречают Томаса, молодого еврея, ненависть и желание начинают терзать Лоре. Она замирает от страха при виде его, но вынуждена доверять тому, кого она привыкла считать врагом.-Режиссер: Кейт Шортланд
Актеры: Саския Розендаль, Неле Требс, Андре Фрид, Мика Сидел, Кай-Петер Малина, Урсина Ларди, Ханс-Йохен Вагнер, Свен Пиппиг, Филип Виграц...
Продолжительность: 01:44:50
Перевод: Одноголосый закадровый [Andi]
Релиз группа: Uniongang
Язык субтитров: английские
Вид субтитров: вшитые, неотключаемые

Дата мировой премьеры: 9 июня 2012
Видеокодек: Xvid
Битрейт видео: ~1888 Kbps
Размер кадра: 720*384
Качество видео: HDRip
Аудиокодек: AC3 5.1
Аудио #1: 448 Kbps, русский
Аудио #2: 448 Kbps, немецкий

MediaInfo:

General
Complete name                            : :\\Lore.2012.HDRip.avi
Format                                   : AVI
Format/Info                              : Audio Video Interleave
Format profile                           : OpenDML
File size                                : 2.05 GiB
Duration                                 : 1h 44mn
Overall bit rate                         : 2 803 Kbps
Writing application                      : VirtualDubMod 1.5.10.2 (build 2540/release)
Writing library                          : VirtualDubMod build 2540/release
Video
ID                                       : 0
Format                                   : MPEG-4 Visual
Format profile                           : Advanced Simple@L5
Format settings, BVOP                    : 2
Format settings, QPel                    : No
Format settings, GMC                     : No warppoints
Format settings, Matrix                  : Custom
Codec ID                                 : XVID
Codec ID/Hint                            : XviD
Duration                                 : 1h 44mn
Bit rate                                 : 1 888 Kbps
Width                                    : 720 pixels
Height                                   : 384 pixels
Display aspect ratio                     : 1.85:1
Frame rate                               : 25.000 fps
Color space                              : YUV
Chroma subsampling                       : 4:2:0
Bit depth                                : 8 bits
Scan type                                : Progressive
Compression mode                         : Lossy
Bits/(Pixel*Frame)                       : 0.273
Stream size                              : 1.38 GiB (67%)
Writing library                          : XviD 1.2.1 (UTC 2008-12-04)
Audio #1
ID                                       : 1
Format                                   : AC-3
Format/Info                              : Audio Coding 3
Mode extension                           : CM (complete main)
Format settings, Endianness              : Big
Codec ID                                 : 2000
Duration                                 : 1h 44mn
Bit rate mode                            : Constant
Bit rate                                 : 448 Kbps
Channel(s)                               : 6 channels
Channel positions                        : Front: L C R, Side: L R, LFE
Sampling rate                            : 48.0 KHz
Bit depth                                : 16 bits
Compression mode                         : Lossy
Stream size                              : 336 MiB (16%)
Alignment                                : Split accross interleaves
Interleave, duration                     : 40 ms (1.00 video frame)
Interleave, preload duration             : 500 ms
Audio #2
ID                                       : 2
Format                                   : AC-3
Format/Info                              : Audio Coding 3
Mode extension                           : CM (complete main)
Format settings, Endianness              : Big
Codec ID                                 : 2000
Duration                                 : 1h 44mn
Bit rate mode                            : Constant
Bit rate                                 : 448 Kbps
Channel(s)                               : 6 channels
Channel positions                        : Front: L C R, Side: L R, LFE
Sampling rate                            : 48.0 KHz
Bit depth                                : 16 bits
Compression mode                         : Lossy
Stream size                              : 336 MiB (16%)
Alignment                                : Split accross interleaves
Interleave, duration                     : 40 ms (1.00 video frame)
Interleave, preload duration             : 500 ms
Скриншоты:

Время раздачи: 24/7 до 3-х скачавших

[Цитировать]



Показать сообщения:    

Текущее время: 07-Дек 13:36

Часовой пояс: UTC + 3


Вы не можете начинать темы
Вы не можете отвечать на сообщения
Вы не можете редактировать свои сообщения
Вы не можете удалять свои сообщения
Вы не можете голосовать в опросах
Вы не можете прикреплять файлы к сообщениям
Вы не можете скачивать файлы

!ВНИМАНИЕ!
Сайт не предоставляет электронные версии произведений, а занимается лишь коллекционированием и каталогизацией ссылок, присылаемых и публикуемых на форуме нашими читателями. Если вы являетесь правообладателем какого-либо представленного материала и не желаете, чтобы ссылка на него находилась в нашем каталоге, свяжитесь с нами, и мы незамедлительно удалим ее. Файлы для обмена на трекере предоставлены пользователями сайта, и администрация не несет ответственности за их содержание. Просьба не заливать файлы, защищенные авторскими правами, а также файлы нелегального содержания!