[ Сегодня идет свободное скачивание без начисления Download ]


Статистика раздачи
Нет
 
   
 
Top  
 
 
-Лоре / Lore (2012) HDRip«When your life is a lie, who can you trust?»- Русское название: Лоре
Оригинальное название: Lore
Производство: Германия, Австралия, Великобритания / Rohfilm, Porchlight Films, Edge City Films
Год выпуска: 2012
Жанр: Драма, Военный
Описание фильма:
Германия. 1945 год. Самый конец войны. Группа детей отправляется в путешествие по разоренной Германии, чтобы добраться до бабушки, которая живет на севере страны Старшая, Лоре, осталась одна с четырьмя младшими братьями и сестрой после того, как их родители, члены СС, были арестованы союзниками. Это путешествие покажет детям настоящий реальный мир и последствия действий их родителей. После того, как они встречают Томаса, молодого еврея, ненависть и желание начинают терзать Лоре. Она замирает от страха при виде его, но вынуждена доверять тому, кого она привыкла считать врагом.
Режиссер: Кейт Шортланд
Актеры: Саския Розендаль, Неле Требс, Андре Фрид, Мика Сидел, Кай-Петер Малина, Урсина Ларди, Ханс-Йохен Вагнер, Свен Пиппиг, Филип Виграц
Продолжительность: 01:44:50
Перевод: Любительский (одноголосый) [Andi]
Субтитры: Вшитые не отключаемые
Язык субтитров: Aнглийский

Дата мировой премьеры: 9 июня 2012
Видеокодек: Xvid
Битрейт видео: ~1529 Kbit/s
Размер кадра: 720 x 384
Качество видео: HDRip
Аудиокодек: AC3 5.1
Битрейт аудио: 448 Kbit/s

MediaInfo

Общее
Полное имя : D:\Торренты\ФИЛЬМЫ торента\Лоре.2012.HDRip.avi
Формат : AVI
Формат/Информация : Audio Video Interleave
Размер файла : 1,46 Гбайт
Продолжительность : 1 ч. 44 м.
Общий поток : 1987 Кбит/сек
Программа кодирования : VirtualDubMod 1.5.10.2 (build 2540/release)
Библиотека кодирования : VirtualDubMod build 2540/release
Видео
Идентификатор : 0
Формат : MPEG-4 Visual
Профиль формата : Advanced Simple@L5
Параметр BVOP формата : 2
Параметр QPel формата : Нет
Параметр GMC формата : Без точки перехода
Параметр матрицы формата : Выборочная
Идентификатор кодека : XVID
Идентификатор кодека/Подсказка : XviD
Продолжительность : 1 ч. 44 м.
Битрейт : 1529 Кбит/сек
Ширина : 720 пикс.
Высота : 384 пикс.
Соотношение сторон : 1,875
Частота кадров : 25,000 кадр/сек
Цветовое пространство : YUV
Подвыборка цветности : 4:2:0
Битовая глубина : 8 бит
Тип развёртки : Прогрессивная
Метод сжатия : С потерями
Бит/(Пиксели*Кадры) : 0.221
Размер потока : 1,12 Гбайт (77%)
Библиотека кодирования : XviD 1.2.1 (UTC 2008-12-04)
Аудио
Идентификатор : 1
Формат : AC-3
Формат/Информация : Audio Coding 3
Расширение режима : CM (complete main)
Идентификатор кодека : 2000
Продолжительность : 1 ч. 44 м.
Вид битрейта : Постоянный
Битрейт : 448 Кбит/сек
Каналы : 6 каналов
Расположение каналов : Front: L C R, Side: L R, LFE
Частота : 48,0 КГц
Битовая глубина : 16 бит
Метод сжатия : С потерями
Размер потока : 336 Мбайт (23%)
Выравнивание : Разделение по промежуткам
Продолжительность промежутка : 40 мс. (1,00 видеокадр)
Время предзагрузки промежутка : 500 ms
Скриншоты:
Время раздачи: 24/7 по возможности

[Цитировать]



Показать сообщения:    

Текущее время: 09-Дек 10:50

Часовой пояс: UTC + 3


Вы не можете начинать темы
Вы не можете отвечать на сообщения
Вы не можете редактировать свои сообщения
Вы не можете удалять свои сообщения
Вы не можете голосовать в опросах
Вы не можете прикреплять файлы к сообщениям
Вы не можете скачивать файлы

!ВНИМАНИЕ!
Сайт не предоставляет электронные версии произведений, а занимается лишь коллекционированием и каталогизацией ссылок, присылаемых и публикуемых на форуме нашими читателями. Если вы являетесь правообладателем какого-либо представленного материала и не желаете, чтобы ссылка на него находилась в нашем каталоге, свяжитесь с нами, и мы незамедлительно удалим ее. Файлы для обмена на трекере предоставлены пользователями сайта, и администрация не несет ответственности за их содержание. Просьба не заливать файлы, защищенные авторскими правами, а также файлы нелегального содержания!