[ Сегодня идет свободное скачивание без начисления Download ]


Статистика раздачи
Нет
 
   
 
Top  
 
 
-Поле битвы: Земля / Battlefield Earth: A Saga of the Year 3000 от R.G. Shadoof- Русское название: Поле битвы: Земля
Оригинальное название: Battlefield Earth: A Saga of the Year 3000
Год выпуска: 2000
Производство: США
Жанр: фантастика, боевик
Перевод: Одноголосый закадровый (Ю. Сербин)
Субтитры: Отсутствуют-Релиз группы: R.G. Shadoof
Автор рипа : What You Gonna Do ?
-Режиссер: Роджер Кристиан
Актеры: Джон Траволта, Барри Пеппер, Форест Уитакер, Ким Коутс, Сабина Карсенти, Майкл Бирн, Кристиан Тессьер, Сильвен Ландри, Ричард Тайсон, Кристофер Фриман- -Описание фильма: 3000 год. Уже десять веков Землей правит жестокая раса пришельцев. Поработив людей, гиганты Сайклосы превратили завоеванную планету в источник сырья для своего далекого мира. Избежавшие смерти и рабства земляне первобытными племенами рассеялись по горам и лесам. Но однажды, получив доступ к оружию и технологиям пришельцев, они поднимают восстание. Начинается новая звездная война, в которой одна из цивилизаций обречена на уничтожение...-Исходник: Поле битвы: Земля / Battlefield Earth: A Saga of the Year 3000 (2000) 1080p BD-Remux
Продолжительность: 01:59:01
Качество видео: BDRip
Видеокодек: XviD
Битрейт видео: ~1848 kbps
Размер кадра: 704x400
Аудио 1: Русский: 48 kHz, AC3, 3/2 (L,C,R,l,r) + LFE ch, ~384.00 kbps avg |Одноголосый закадровый, Ю. Сербин|
Аудио 2: Английский: 48 kHz, AC3, 3/2 (L,C,R,l,r) + LFE ch, ~384.00 kbps avg
-

MediaInfo

Общее
Полное имя                               : C:\Users\iCrab\Desktop\Battlefield.Earth.A.Saga.of.the.Year.3000.2000.BDRip.Rus.Eng.~R.G.Shadoof.avi
Формат                                   : AVI
Формат/Информация                        : Audio Video Interleave
Профиль формата                          : OpenDML
Размер файла                             : 2,19 Гбайт
Продолжительность                        : 1 ч. 59 м.
Общий поток                              : 2633 Кбит/сек
Название фильма                          : Battlefield.Earth.A.Saga.of.the.Year.3000.2000.BDRip.Rus.Eng.~R.G.Shadoof
Режиссёр                                 : WYGD?
Программа кодирования                    : VirtualDubMod 1.5.10.2 (build 2540/release)
Правообладатель                          : R.G.Shadoof
Примечание                               : 24.03.2013
Видео
Идентификатор                            : 0
Формат                                   : MPEG-4 Visual
Профиль формата                          : Advanced [email protected]
Параметр BVOP формата                    : 1
Параметр QPel формата                    : Нет
Параметр GMC формата                     : Без точки перехода
Параметр матрицы формата                 : Выборочная
Идентификатор кодека                     : XVID
Идентификатор кодека/Подсказка           : XviD
Продолжительность                        : 1 ч. 59 м.
Битрейт                                  : 1848 Кбит/сек
Ширина                                   : 704 пикселя
Высота                                   : 400 пикселей
Соотношение сторон                       : 16:9
Частота кадров                           : 23,976 кадра/сек
Цветовое пространство                    : YUV
Субдискретизация насыщенности            : 4:2:0
Битовая глубина                          : 8 бит
Тип развёртки                            : Прогрессивная
Метод сжатия                             : С потерями
Бит/(Пиксели*Кадры)                      : 0.274
Размер потока                            : 1,54 Гбайт (70%)
Библиотека кодирования                   : XviD 64
Аудио #1
Идентификатор                            : 1
Формат                                   : AC-3
Формат/Информация                        : Audio Coding 3
Расширение режима                        : CM (complete main)
Параметр Endianness формата              : Big
Идентификатор кодека                     : 2000
Продолжительность                        : 1 ч. 59 м.
Вид битрейта                             : Постоянный
Битрейт                                  : 384 Кбит/сек
Каналы                                   : 6 каналов
Расположение каналов                     : Front: L C R, Side: L R, LFE
Частота                                  : 48,0 КГц
Битовая глубина                          : 16 бит
Метод сжатия                             : С потерями
Размер потока                            : 327 Мбайт (15%)
Выравнивание                             : Разделение по промежуткам
Продолжительность промежутка             : 42  мс. (1,00 видеокадр)
Время предзагрузки промежутка            : 500  мс.
Аудио #2
Идентификатор                            : 2
Формат                                   : AC-3
Формат/Информация                        : Audio Coding 3
Расширение режима                        : CM (complete main)
Параметр Endianness формата              : Big
Идентификатор кодека                     : 2000
Продолжительность                        : 1 ч. 59 м.
Вид битрейта                             : Постоянный
Битрейт                                  : 384 Кбит/сек
Каналы                                   : 6 каналов
Расположение каналов                     : Front: L C R, Side: L R, LFE
Частота                                  : 48,0 КГц
Битовая глубина                          : 16 бит
Метод сжатия                             : С потерями
Размер потока                            : 327 Мбайт (15%)
Выравнивание                             : Разделение по промежуткам
Продолжительность промежутка             : 42  мс. (1,00 видеокадр)
Время предзагрузки промежутка            : 500  мс.
- - --

[Цитировать]

Топик был перенесен из форума Новинки кинопроката в форум Фантастика
Henkok



Показать сообщения:    

Текущее время: 04-Дек 04:58

Часовой пояс: UTC + 3


Вы не можете начинать темы
Вы не можете отвечать на сообщения
Вы не можете редактировать свои сообщения
Вы не можете удалять свои сообщения
Вы не можете голосовать в опросах
Вы не можете прикреплять файлы к сообщениям
Вы не можете скачивать файлы

!ВНИМАНИЕ!
Сайт не предоставляет электронные версии произведений, а занимается лишь коллекционированием и каталогизацией ссылок, присылаемых и публикуемых на форуме нашими читателями. Если вы являетесь правообладателем какого-либо представленного материала и не желаете, чтобы ссылка на него находилась в нашем каталоге, свяжитесь с нами, и мы незамедлительно удалим ее. Файлы для обмена на трекере предоставлены пользователями сайта, и администрация не несет ответственности за их содержание. Просьба не заливать файлы, защищенные авторскими правами, а также файлы нелегального содержания!