[ Сегодня идет свободное скачивание без начисления Download ]


Статистика раздачи
Нет
 
   
 
Top  
 
 
-Мафия / Mafia / Mafia war (2011) HDRip- Русское название: Мафия
Оригинальное название: Mafia / Mafia war
Год выпуска: 2011
Жанр: Триллер, Криминал
Описание фильма:
Нью-Йоркский гангстер Ренцо Вeз решил стать королем всего Южного Централа,и,идя к своей цели,не останавливался ни перед чем.
Два детектива решили остановить его путь по трупам.
Режиссер: Райан Комбс
Актеры: Винг Реймз, Пэм Гриер,Шон Дерри, Карл Клемонс, Дэвид Билли Коул, Джэк Эрди, Джои Форгиони, Бэррет Хэкни, Патрик Джордан, Мелани Мэрден.
Продолжительность: 01:21:54
Перевод: Одноголосый закадровый
Субтитры: Отсутствуют

Видеокодек: Xvid
Битрейт видео: 2100 Кбит/сек
Размер кадра: 720x400
Качество видео: HDRip
Аудио 1: AC3, 224 Kbps, 2.0, 48 КГц Русский
Аудио 2: AC3, 224 Kbps, 2.0, 48 КГц Англиский

MediaInfo:

General
Format : AVI
Format/Info : Audio Video Interleave
File size : 1.47 GiB
Duration : 1h 21mn
Overall bit rate : 2 562 Kbps
Writing application : VirtualDubMod 1.5.10.2 (build 2540/release)
Writing library : VirtualDubMod build 2540/release
Video #0
ID : 0
Format : MPEG-4 Visual
Format profile : Advanced Simple@L5
Format settings, BVOP : 2
Format settings, QPel : No
Format settings, GMC : No warppoints
Format settings, Matrix : Default (H.263)
Muxing mode : Packed bitstream
Codec ID : XVID
Codec ID/Hint : XviD
Duration : 1h 21mn
Bit rate : 2 100 Kbps
Width : 720 pixels
Height : 400 pixels
Display aspect ratio : 16:9
Frame rate : 23.976 fps
Color space : YUV
Chroma subsampling : 4:2:0
Bit depth : 8 bits
Scan type : Progressive
Compression mode : Lossy
Bits/(Pixel*Frame) : 0.304
Stream size : 1.20 GiB (82%)
Writing library : XviD 1.2.1 (UTC 2008-12-04)
Audio #1
ID : 1
Format : AC-3
Format/Info : Audio Coding 3
Mode extension : CM (complete main)
Codec ID : 2000
Duration : 1h 21mn
Bit rate mode : Constant
Bit rate : 224 Kbps
Channel(s) : 2 channels
Channel positions : Front: L R
Sampling rate : 48.0 KHz
Bit depth : 16 bits
Compression mode : Lossy
Stream size : 131 MiB (9%)
Alignment : Split accross interleaves
Interleave, duration : 42 ms (1.00 video frame)
Interleave, preload duration : 500 ms
Audio #2
ID : 2
Format : AC-3
Format/Info : Audio Coding 3
Mode extension : CM (complete main)
Codec ID : 2000
Duration : 1h 21mn
Bit rate mode : Constant
Bit rate : 224 Kbps
Channel(s) : 2 channels
Channel positions : Front: L R
Sampling rate : 48.0 KHz
Bit depth : 16 bits
Compression mode : Lossy
Stream size : 131 MiB (9%)
Alignment : Split accross interleaves
Interleave, duration : 42 ms (1.00 video frame)
Interleave, preload duration : 500 ms
Скриншоты:

Время раздачи: круглосуточно

[Цитировать]



Показать сообщения:    

Текущее время: 03-Дек 01:13

Часовой пояс: UTC + 3


Вы не можете начинать темы
Вы не можете отвечать на сообщения
Вы не можете редактировать свои сообщения
Вы не можете удалять свои сообщения
Вы не можете голосовать в опросах
Вы не можете прикреплять файлы к сообщениям
Вы не можете скачивать файлы

!ВНИМАНИЕ!
Сайт не предоставляет электронные версии произведений, а занимается лишь коллекционированием и каталогизацией ссылок, присылаемых и публикуемых на форуме нашими читателями. Если вы являетесь правообладателем какого-либо представленного материала и не желаете, чтобы ссылка на него находилась в нашем каталоге, свяжитесь с нами, и мы незамедлительно удалим ее. Файлы для обмена на трекере предоставлены пользователями сайта, и администрация не несет ответственности за их содержание. Просьба не заливать файлы, защищенные авторскими правами, а также файлы нелегального содержания!