[ Сегодня идет свободное скачивание без начисления Download ]


Статистика раздачи
Нет
 
   
 
Top  
 
 
-Просто друзья / Just Friends (2005) BDRip-«Каждый парень боится услышать эти два слова...»- Русское название: Просто друзья
Оригинальное название: Just Friends
Год выпуска: 2005
Жанр: Романтическая комедия
Описание фильма:
Лос-анджелесский музыкальный продюсер Крис Брэндер имеет все, что только можно пожелать, — деньги, приятную внешность и замечательную работу. Однако в жизни Криса не всегда все складывалось так гладко. В школе он был очень полным и от этого чересчур застенчивым.
Единственное светлое воспоминание он сохранил о своей близкой подруге Джейми, в которую он был тайно и безнадежно влюблен. И вот по прошествии десяти лет, став неотразимым сердцеедом и преуспевающим продюсером, по пути в Париж Крис вынужден остановиться в родном для него Нью-Джерси. В местном баре Крис случайно встречает Джейми и понимает, что все еще любит ее.
Однако завоевать сердце любимой девушки оказывается еще труднее, чем 10 лет назад.
Режиссер: Роджер Камбл
Актеры: Райан Рейнольдс, Эми Смарт, Анна Фэрис, Крис Клейн, Крис Маркетт, Джакомо Белтрами, Фред Эвануик, Эми Матисио, Джули Хэгерти, Венди Андерсон
Продолжительность: 01:34:15
Перевод: Дубляж + Профессиональный (многоголосый закадровый) - (Украинский - K1)
Язык субтитров: Английские, Русские, Украинские (SRT)
Вид субтитров: Отдельным файлом

Дата мировой премьеры: 23 ноября 2005
Дата российской премьеры: 9 марта 2006
Дата выхода DVD релиза: 30 марта 2006
Видеокодек: Xvid
Битрейт видео: ~2018 kb/s
Размер кадра: 720х400
Качество видео: BDRip
Аудио #1: 48 kHz, AC3 Dolby Digital 6 ch, 448.00 kbps / Дубляж
Аудио #2: 48 kHz, AC3 Dolby Digital 6 ch, 448.00 kbps / Профессиональный (многоголосый закадровый) - Украинский
Аудио #3: 48 kHz, AC3 Dolby Digital 6 ch, 448.00 kbps / Оригинал (Английский)
&

MI

Общее
Полное имя : E:\Фильмы М\Just.Friends.2005.BDRip.Rus.Ukr.Eng\Just Friends.2005.BDRip.avi
Формат : AVI
Формат/Информация : Audio Video Interleave
Профиль формата : OpenDML
Размер файла : 2,23 Гбайт
Продолжительность : 1 ч. 34 м.
Общий поток : 3386 Кбит/сек
Программа кодирования : VirtualDubModRus 1.5.10.2 (build 2542/release)
Библиотека кодирования : VirtualDubMod build 2542/release
Видео
Идентификатор : 0
Формат : MPEG-4 Visual
Профиль формата : Advanced [email protected]
Параметр BVOP формата : 1
Параметр QPel формата : Нет
Параметр GMC формата : Без точки перехода
Параметр матрицы формата : Выборочная
Режим смешивания : Сжатый битовый поток
Идентификатор кодека : XVID
Идентификатор кодека/Подсказка : XviD
Продолжительность : 1 ч. 34 м.
Битрейт : 2018 Кбит/сек
Ширина : 720 пикселей
Высота : 400 пикселей
Соотношение сторон : 16:9
Частота кадров : 24,000 кадра/сек
Цветовое пространство : YUV
Субдискретизация насыщенности : 4:2:0
Битовая глубина : 8 бит
Тип развёртки : Прогрессивная
Метод сжатия : С потерями
Бит/(Пиксели*Кадры) : 0.292
Размер потока : 1,33 Гбайт (60%)
Библиотека кодирования : XviD 65
Аудио #1
Идентификатор : 1
Формат : AC-3
Формат/Информация : Audio Coding 3
Расширение режима : CM (complete main)
Параметр Endianness формата : Big
Идентификатор кодека : 2000
Продолжительность : 1 ч. 34 м.
Вид битрейта : Постоянный
Битрейт : 448 Кбит/сек
Каналы : 6 каналов
Расположение каналов : Front: L C R, Side: L R, LFE
Частота : 48,0 КГц
Битовая глубина : 16 бит
Метод сжатия : С потерями
Размер потока : 302 Мбайт (13%)
Выравнивание : Разделение по промежуткам
Продолжительность промежутка : 42 мс. (1,00 видеокадр)
Время предзагрузки промежутка : 500 мс.
Заголовок : Дубляж
Аудио #2
Идентификатор : 2
Формат : AC-3
Формат/Информация : Audio Coding 3
Расширение режима : CM (complete main)
Параметр Endianness формата : Big
Идентификатор кодека : 2000
Продолжительность : 1 ч. 34 м.
Вид битрейта : Постоянный
Битрейт : 448 Кбит/сек
Каналы : 6 каналов
Расположение каналов : Front: L C R, Side: L R, LFE
Частота : 48,0 КГц
Битовая глубина : 16 бит
Метод сжатия : С потерями
Размер потока : 302 Мбайт (13%)
Выравнивание : Разделение по промежуткам
Продолжительность промежутка : 42 мс. (1,00 видеокадр)
Время предзагрузки промежутка : 500 мс.
Заголовок : Профессиональный (многоголосый закадровый) - (Украинский - K1)
Аудио #3
Идентификатор : 3
Формат : AC-3
Формат/Информация : Audio Coding 3
Расширение режима : CM (complete main)
Параметр Endianness формата : Big
Идентификатор кодека : 2000
Продолжительность : 1 ч. 34 м.
Вид битрейта : Постоянный
Битрейт : 448 Кбит/сек
Каналы : 6 каналов
Расположение каналов : Front: L C R, Side: L R, LFE
Частота : 48,0 КГц
Битовая глубина : 16 бит
Метод сжатия : С потерями
Размер потока : 302 Мбайт (13%)
Выравнивание : Разделение по промежуткам
Продолжительность промежутка : 42 мс. (1,00 видеокадр)
Время предзагрузки промежутка : 500 мс.
Заголовок : Оригинал (Английский)
Скриншоты:

Время раздачи: С 10:00 до 22:30

[Цитировать]



Показать сообщения:    

Текущее время: 04-Дек 06:55

Часовой пояс: UTC + 3


Вы не можете начинать темы
Вы не можете отвечать на сообщения
Вы не можете редактировать свои сообщения
Вы не можете удалять свои сообщения
Вы не можете голосовать в опросах
Вы не можете прикреплять файлы к сообщениям
Вы не можете скачивать файлы

!ВНИМАНИЕ!
Сайт не предоставляет электронные версии произведений, а занимается лишь коллекционированием и каталогизацией ссылок, присылаемых и публикуемых на форуме нашими читателями. Если вы являетесь правообладателем какого-либо представленного материала и не желаете, чтобы ссылка на него находилась в нашем каталоге, свяжитесь с нами, и мы незамедлительно удалим ее. Файлы для обмена на трекере предоставлены пользователями сайта, и администрация не несет ответственности за их содержание. Просьба не заливать файлы, защищенные авторскими правами, а также файлы нелегального содержания!