[ Сегодня идет свободное скачивание без начисления Download ]


Статистика раздачи
Нет
 
   
 
 
 
Дети кукурузы 4: Сбор урожая / Children of the Corn IV: The Gathering«In a sleepy midwestern town... A horrifying evil is about to rise again!»
Страна: США
Производство: Dimension Films
Год выпуска: 1996
Жанр: Ужасы
Режиссёр: Грег Спенс
В ролях: Наоми Уоттс, Брент Дженнингс, Сэмэриа Грэм, Джейми Рене Смит, Брэндон Клейла, Уильям Уиндом, Карен Блэк, Марк Сэллинг, Тони Марш, Льюис Флэнэгэн-третий, Сэлли Эллис, Мэриэтта Мэрич, Джонатан Пэттерсон, Джошуа Пэттерсон, Кэй Бауэр, Ивэн Гринуолт, Адам Лидберг, Либби Виллари
Перевод: Профессиональный (двухголосый, закадровый)
Субтитры: Нет
Описание: Симпатичная девушка въезжает в знакомый городок, и зрителя уже настраивают на соответствующий лад в кровавых тонах. Злобные детки продолжают убивать своих родителей, принося их в жертву ненасытной кукурузе, культу которой они поклоняются. Со дня выхода первого фильма в 1984 году прошло немало лет, и техника кино на месте не стояла: спецэффекты становятся все совершенней, а "пугалки" изощренней.

Качество: DVDRip
Продолжительность: 01:21:38 час.
Формат: MP4
Разрешение экрана: 480х368
Видео кодек: AVC
Аудио кодек: AAC
Свойства видео: 480х368 (1.33:1), 25 fps, AVC ~650 kbps avg, 0.147 bit/pixel
Свойства аудио: 48 kHz, AAC, 2 ch, ~112.00 kbps avg

Media Info

Видео
Идентификатор                            : 1
Формат                                   : AVC
Формат/Информация                        : Advanced Video Codec
Профиль формата                          : [email protected]
Параметр CABAC формата                   : Нет
Параметр ReFrames формата                : 2 кадра
Идентификатор кодека                     : avc1
Идентификатор кодека/Информация          : Advanced Video Coding
Продолжительность                        : 1 ч. 21 м.
Вид битрейта                             : Переменный
Битрейт                                  : 650 Кбит/сек
Ширина                                   : 480 пикселей
Высота                                   : 368 пикселей
Соотношение сторон                       : 4:3
Режим частоты кадров                     : Постоянный
Частота кадров                           : 25,000 кадров/сек
Цветовое пространство                    : YUV
Субдискретизация насыщенности            : 4:2:0
Битовая глубина                          : 8 бит
Тип развёртки                            : Прогрессивная
Бит/(Пиксели*Кадры)                      : 0.147
Размер потока                            : 380 Мбайт (85%)
Библиотека кодирования                   : x264 core 65
Настройки программы                      : cabac=0 / ref=2 / deblock=1:0:0 / analyse=0x1:0x131 / me=umh / subme=6 / psy_rd=1.0:0.0 / mixed_ref=1 / me_range=16 / chroma_me=1 / trellis=0 / 8x8dct=0 / cqm=0 / deadzone=21,11 / chroma_qp_offset=-2 / threads=3 / nr=0 / decimate=1 / mbaff=0 / bframes=0 / keyint=250 / keyint_min=25 / scenecut=40(pre) / rc=2pass / bitrate=650 / ratetol=1.0 / qcomp=0.60 / qpmin=10 / qpmax=51 / qpstep=4 / cplxblur=20.0 / qblur=0.5 / ip_ratio=1.40 / aq=1:1.00
Язык                                     : English
Дата кодирования                         : UTC 2009-09-29 02:34:18
Дата пометки                             : UTC 2009-09-29 03:58:20
Основные цвета                           : BT.601-6 525, BT.1358 525, BT.1700 NTSC, SMPTE 170M
Характеристики трансфера                 : BT.709-5, BT.1361
Коэффициенты матрицы                     : BT.601-6 525, BT.1358 525, BT.1700 NTSC, SMPTE 170M
Аудио
Идентификатор                            : 2
Формат                                   : AAC
Формат/Информация                        : Advanced Audio Codec
Профиль формата                          : LC
Идентификатор кодека                     : 40
Продолжительность                        : 1 ч. 21 м.
Вид битрейта                             : Переменный
Битрейт                                  : 112 Кбит/сек
Каналы                                   : 2 канала
Расположение каналов                     : Front: L R
Частота                                  : 48,0 КГц
Метод сжатия                             : С потерями
Размер потока                            : 65,4 Мбайт (15%)
Дата кодирования                         : UTC 2009-09-29 02:34:18
Дата пометки                             : UTC 2009-09-29 03:58:11

Скриншоты



[Цитировать]



Показать сообщения:    

Текущее время: 06-Дек 03:54

Часовой пояс: UTC + 3


Вы не можете начинать темы
Вы не можете отвечать на сообщения
Вы не можете редактировать свои сообщения
Вы не можете удалять свои сообщения
Вы не можете голосовать в опросах
Вы не можете прикреплять файлы к сообщениям
Вы не можете скачивать файлы

!ВНИМАНИЕ!
Сайт не предоставляет электронные версии произведений, а занимается лишь коллекционированием и каталогизацией ссылок, присылаемых и публикуемых на форуме нашими читателями. Если вы являетесь правообладателем какого-либо представленного материала и не желаете, чтобы ссылка на него находилась в нашем каталоге, свяжитесь с нами, и мы незамедлительно удалим ее. Файлы для обмена на трекере предоставлены пользователями сайта, и администрация не несет ответственности за их содержание. Просьба не заливать файлы, защищенные авторскими правами, а также файлы нелегального содержания!