[ Сегодня идет свободное скачивание без начисления Download ]


Статистика раздачи
Нет
 
   
 
Top  
 
 
-Табельщик / The Timekeeper (2009) DVDRip- Русское название: Табельщик
Оригинальное название: The Timekeeper
Год выпуска: 2009
Производство: Канада, Coop Vid?o de Montr?al, Perfect Circle Productions, T?l?film Canada
Жанр: Приключения
Описание фильма:
Изолированный лагерь рабочих в дикой глуши… Стройка 52-х миль железной дороги Большого Невольничьего озера. Каждый день нищие рабочие заняты на изнурительных работах под руководством жестокого бригадира Фиска. В свое время он завербовал этих мужчин, одурачив их, собрал разношерстный коллектив, пройдясь по местным притонам и барам. Теперь они вынуждены вкалывать ежедневно, соблюдая местные драконовские законы...
Режиссер: Луис Беланже
Актеры: Крэйг Олейник, Стивен МакХэтти, Гэри Фармер, Рой Дюпюи, Джулиан Ричингс, Уэйн Робсон, Гастон Лепаж, Витторио Росси, Люк Морриссет, Нил Кроетч
Продолжительность: 01:42:30
Перевод: Одноголосый закадровый (Хихикающий доктор)
Язык субтитров: Русские
Вид субтитров: Отдельным файлом

Дата мировой премьеры: 5 июня 2009
Качество видео: DVDRip
Видеокодек: Xvid
Битрейт видео: ~1589 Кбит/с
Размер кадра: 720x320
Аудио 1: MP3, 2.0, 128 Kbps Русский
Аудио 2: MP3, 2.0, 192 Kbps Английский

MediaInfo

Общее
Полное имя : The.Timekeeper.avi
Формат : AVI
Формат/Информация : Audio Video Interleave
Размер файла : 1,38 Гбайт
Продолжительность : 1 ч. 42 м.
Общий поток : 1925 Кбит/сек
Программа кодирования : VirtualDubModRus 1.5.10.2 (build 2542/release)
Библиотека кодирования : VirtualDubMod build 2542/release
Видео
Идентификатор : 0
Формат : MPEG-4 Visual
Профиль формата : Advanced [email protected]
Параметр BVOP формата : 1
Параметр QPel формата : Нет
Параметр GMC формата : Без точки перехода
Параметр матрицы формата : Default (MPEG)
Идентификатор кодека : XVID
Идентификатор кодека/Подсказка : XviD
Продолжительность : 1 ч. 42 м.
Битрейт : 1589 Кбит/сек
Ширина : 720 пикселей
Высота : 320 пикселей
Соотношение сторон : 2,25:1
Частота кадров : 29,970 кадров/сек
Цветовое пространство : YUV
Субдискретизация насыщенности : 4:2:0
Битовая глубина : 8 бит
Тип развёртки : Прогрессивная
Метод сжатия : С потерями
Бит/(Пиксели*Кадры) : 0.230
Размер потока : 1,14 Гбайт (83%)
Библиотека кодирования : XviD 1.2.1 (UTC 2008-12-04)
Аудио #1
Идентификатор : 1
Формат : MPEG Audio
Версия формата : Version 1
Профиль формата : Layer 3
Идентификатор кодека : 55
Идентификатор кодека/Подсказка : MP3
Продолжительность : 1 ч. 41 м.
Вид битрейта : Постоянный
Битрейт : 128 Кбит/сек
Каналы : 2 канала
Частота : 44,1 КГц
Метод сжатия : С потерями
Размер потока : 93,2 Мбайт (7%)
Выравнивание : Разделение по промежуткам
Продолжительность промежутка : 34 мс. (1,01 видеокадр)
Время предзагрузки промежутка : 500 мс.
Аудио #2
Идентификатор : 2
Формат : MPEG Audio
Версия формата : Version 1
Профиль формата : Layer 3
Идентификатор кодека : 55
Идентификатор кодека/Подсказка : MP3
Продолжительность : 1 ч. 42 м.
Вид битрейта : Постоянный
Битрейт : 192 Кбит/сек
Каналы : 2 канала
Частота : 48,0 КГц
Метод сжатия : С потерями
Размер потока : 141 Мбайт (10%)
Выравнивание : Соединение по промежуткам
Продолжительность промежутка : 33 мс. (1,00 видеокадр)
Время предзагрузки промежутка : 504 мс.
Библиотека кодирования : LAME3.99.5
Скриншоты:

Время раздачи: С 8:00 до 24:00

[Цитировать]



Показать сообщения:    

Текущее время: 05-Дек 05:32

Часовой пояс: UTC + 3


Вы не можете начинать темы
Вы не можете отвечать на сообщения
Вы не можете редактировать свои сообщения
Вы не можете удалять свои сообщения
Вы не можете голосовать в опросах
Вы не можете прикреплять файлы к сообщениям
Вы не можете скачивать файлы

!ВНИМАНИЕ!
Сайт не предоставляет электронные версии произведений, а занимается лишь коллекционированием и каталогизацией ссылок, присылаемых и публикуемых на форуме нашими читателями. Если вы являетесь правообладателем какого-либо представленного материала и не желаете, чтобы ссылка на него находилась в нашем каталоге, свяжитесь с нами, и мы незамедлительно удалим ее. Файлы для обмена на трекере предоставлены пользователями сайта, и администрация не несет ответственности за их содержание. Просьба не заливать файлы, защищенные авторскими правами, а также файлы нелегального содержания!