[ Сегодня идет свободное скачивание без начисления Download ]


Статистика раздачи
Нет
 
   
 
Top  
 
 
Iron Maiden / Maiden England '88- -Жанр: Heavy Metal | Год издания: 2013 | Издатель (лейбл): EMI 50999 973 615 2 7 | Страна: UK
Аудиокодек: WavPack (*.wv) | Тип рипа: image+.cue | Битрейт аудио: lossless | Продолжительность: 01:40:34
Источник (релизер): taurus66 | Наличие сканов в содержимом раздачи: да
-Original mixes produced, engineered and mixed by Martin Birch
New mixes (*) by Kevin "Caveman" Shirley

CD1

Треклист:
01. Moonchild (6:23)
02. The Evil That Men Do (4:18)
03. The Prisoner (6:00)
04. Still Life (4:32)
05. Die With Your Boots On (5:19)
06. Infinite Dreams (5:53)
07. Killers (4:57)
08. Can I Play With Madness (3:25)
09. Heaven Can Wait (7:43)
10. Wasted Years (5:06)

Лог создания рипа

Exact Audio Copy V1.0 beta 3 from 29. August 2011
EAC extraction logfile from 23. March 2013, 1:42
Iron Maiden / Maiden England '88 [EMI 50999 973 615 2 7,CD1]
Used drive : Optiarc DVD RW AD-7200S Adapter: 5 ID: 1
Read mode : SecureUtilize accurate stream : YesDefeat audio cache : YesMake use of C2 pointers : No
Read offset correction : 48Overread into Lead-In and Lead-Out : NoFill up missing offset samples with silence : YesDelete leading and trailing silent blocks : NoNull samples used in CRC calculations : YesUsed interface : Installed external ASPI interface
Used output format : User Defined EncoderSelected bitrate : 1024 kBit/sQuality : HighAdd ID3 tag : NoCommand line compressor : D:\Program Files (x86)\Exact Audio Copy\wavpack.exeAdditional command line options : -hlmx2 %source% %dest%
TOC of the extracted CD
Track | Start | Length | Start sector | End sector---------------------------------------------------------1 | 0:00.00 | 6:23.02 | 0 | 287262 | 6:23.02 | 4:17.59 | 28727 | 480603 | 10:40.61 | 5:59.54 | 48061 | 750394 | 16:40.40 | 4:31.74 | 75040 | 954385 | 21:12.39 | 5:18.69 | 95439 | 1193576 | 26:31.33 | 5:52.74 | 119358 | 1458317 | 32:24.32 | 4:56.61 | 145832 | 1680928 | 37:21.18 | 3:25.15 | 168093 | 1834829 | 40:46.33 | 7:42.41 | 183483 | 21817310 | 48:28.74 | 5:05.57 | 218174 | 241105
Range status and errors
Selected range
Filename D:\eac\Iron Maiden 1\CD1\Iron Maiden - Maiden England '88 [EMI 50999 973 615 2 7,CD1].wav
Peak level 100.0 %Extraction speed 4.0 XRange quality 99.9 %Test CRC 4EAD2A4FCopy CRC 4EAD2A4FCopy OK
No errors occurred
AccurateRip summary
Track 1 not present in databaseTrack 2 not present in databaseTrack 3 not present in databaseTrack 4 not present in databaseTrack 5 not present in databaseTrack 6 not present in databaseTrack 7 not present in databaseTrack 8 not present in databaseTrack 9 not present in databaseTrack 10 not present in database
None of the tracks are present in the AccurateRip database
End of status report
---- CUETools DB Plugin V2.1.3
[CTDB TOCID: ML2EQ2nvWbSaVdNAKf1yYrEHUkQ-] found, Submit result: ML2EQ2nvWbSaVdNAKf1yYrEHUkQ- has been confirmed[8c3f2041] (2/2) Accurately ripped
==== Log checksum 6640A15374709FFC2EA078A77FC4C73753740311BFE6BF5142387B777273E607 ====

CD2

Треклист:
01. The Clairvoyant (4:30)
02. Seventh Son Of A Seventh Son (10:08)
03. The Number Of The Beast (4:47)
04. Hallowed Be Thy Name (7:22)
05. Iron Maiden (5:12)
06. Run To The Hills (4:02)
07. Running Free (5:34)
08. Sanctuary (5:25)

Лог создания рипа

Exact Audio Copy V1.0 beta 3 from 29. August 2011
EAC extraction logfile from 23. March 2013, 2:14
Iron Maiden / Maiden England '88 [EMI 50999 973 615 2 7,CD2]
Used drive : Optiarc DVD RW AD-7200S Adapter: 5 ID: 1
Read mode : SecureUtilize accurate stream : YesDefeat audio cache : YesMake use of C2 pointers : No
Read offset correction : 48Overread into Lead-In and Lead-Out : NoFill up missing offset samples with silence : YesDelete leading and trailing silent blocks : NoNull samples used in CRC calculations : YesUsed interface : Installed external ASPI interface
Used output format : User Defined EncoderSelected bitrate : 1024 kBit/sQuality : HighAdd ID3 tag : NoCommand line compressor : D:\Program Files (x86)\Exact Audio Copy\wavpack.exeAdditional command line options : -hlmx2 %source% %dest%
TOC of the extracted CD
Track | Start | Length | Start sector | End sector---------------------------------------------------------1 | 0:00.00 | 4:29.72 | 0 | 202462 | 4:29.72 | 10:08.36 | 20247 | 658823 | 14:38.33 | 4:47.13 | 65883 | 874204 | 19:25.46 | 7:21.47 | 87421 | 1205425 | 26:47.18 | 5:11.41 | 120543 | 1439086 | 31:58.59 | 4:01.54 | 143909 | 1620377 | 36:00.38 | 5:33.65 | 162038 | 1870778 | 41:34.28 | 5:24.70 | 187078 | 211447
Range status and errors
Selected range
Filename D:\eac\Iron Maiden 1\CD2\Iron Maiden - Maiden England '88 [EMI 50999 973 615 2 7,CD2].wav
Peak level 100.0 %Extraction speed 3.7 XRange quality 99.9 %Test CRC 88C34302Copy CRC 88C34302Copy OK
No errors occurred
AccurateRip summary
Track 1 not present in databaseTrack 2 not present in databaseTrack 3 not present in databaseTrack 4 not present in databaseTrack 5 not present in databaseTrack 6 not present in databaseTrack 7 not present in databaseTrack 8 not present in database
None of the tracks are present in the AccurateRip database
End of status report
---- CUETools DB Plugin V2.1.3
[CTDB TOCID: XH_8rcXTr4c2oMdj66YBHOoX05I-] found, Submit result: XH_8rcXTr4c2oMdj66YBHOoX05I- has been confirmed[1a4c47a0] (2/2) Accurately ripped
==== Log checksum D999B293393C49AC4FF9B22C7707C70DBCF40013179D66D68E1774EFAB1E75D1 ====

[Цитировать]



Показать сообщения:    

Текущее время: 08-Дек 03:12

Часовой пояс: UTC + 3


Вы не можете начинать темы
Вы не можете отвечать на сообщения
Вы не можете редактировать свои сообщения
Вы не можете удалять свои сообщения
Вы не можете голосовать в опросах
Вы не можете прикреплять файлы к сообщениям
Вы не можете скачивать файлы

!ВНИМАНИЕ!
Сайт не предоставляет электронные версии произведений, а занимается лишь коллекционированием и каталогизацией ссылок, присылаемых и публикуемых на форуме нашими читателями. Если вы являетесь правообладателем какого-либо представленного материала и не желаете, чтобы ссылка на него находилась в нашем каталоге, свяжитесь с нами, и мы незамедлительно удалим ее. Файлы для обмена на трекере предоставлены пользователями сайта, и администрация не несет ответственности за их содержание. Просьба не заливать файлы, защищенные авторскими правами, а также файлы нелегального содержания!