[ Сегодня идет свободное скачивание без начисления Download ]


Статистика раздачи
Нет
 
   
 
Top  
 
 
-Власть страха / The Bone Collector (1999) HDRip
«Serial killer vs. forensic genius»
- Русское название: Власть страха
Оригинальное название: The Bone Collector
Год выпуска: 1999
Производство: США, Columbia Pictures Corporation, Universal Pictures
Жанр: Триллер, драма, криминал, детектив
Перевод: Профессиональный (полное дублирование)
Субтитры: Отсутствуют
Режиссер: Филлип Нойс
Сценарий: Джереми Иэкоун, Джеффри Дивер
Актеры: Дензел Вашингтон, Анджелина Джоли, Куин Латифа, Майкл Рукер, Майк МакГлоун, Луис Гузман, Лиленд Орсер, Джон Бенжамин Хикки, Бобби Каннавейл, Эд О’Нил, Ричард Биман, Оливия Бирклунд, Гэри Суонсон, Джеймс Буллейт, Фрэнк Фонтейн, Зена Грэй, Дэниэл Брошу, Десмонд Кэмпбелл, Кристиан Велиз, Мерседес Гомез, Мэри Хеммет, Аманда Гэй, Стив Адамс, Ларри Дэй, Бурк Лоуренс, Терри Симпсон, Эрик Дэвис, Артур Холден, Ясмин Давио, Кинэн Макуильям, Дэвид Уоршофски, Матео Гомез, Тед Уиттэлл, Питер Майкл Диллон, Джонатан Старк, Фульвио Чечере, Хэл Шерман, Расселл Юэнь, Андерсон С. Брэдшоу, Жан-Марк Биссон
Описание фильма:
Линкольн Райм — знаменитый криминалист, автор множества книг, навсегда прикованный к больничной постели. Амелия Донаги — начинающий полицейский, делающий первые неуверенные шаги по кровавым мостовым. Когда в городе появляется страшный маньяк, она становится глазами и ушами Райма на обезумевших от ужаса улицах. С ее помощью гений криминалистики пытается разгадать тайный шифр, скрытый в непредсказуемых убийствах…- -Продолжительность: 01:57:57
Качество видео: HDRip
Видеокодек: XviD
Битрейт видео: 746 Кбит/сек
Размер кадра: 688x288
Аудио : Русский, MP3, 2 ch, 128 Кбит/сек

MediaInfo

Общее
Полное имя                               : E:\Раздачи\Видео\Власть страха (1999) HDRip.avi
Формат                                   : AVI
Формат/Информация                        : Audio Video Interleave
Размер файла                             : 745 Мбайт
Продолжительность                        : 1 ч. 57 м.
Общий поток                              : 883 Кбит/сек
Программа кодирования                    : VirtualDubMod 1.5.10.2 (build 2540/release)
Библиотека кодирования                   : VirtualDubMod build 2540/release
Видео
Идентификатор                            : 0
Формат                                   : MPEG-4 Visual
Профиль формата                          : Advanced Simple@L5
Параметр BVOP формата                    : 1
Параметр QPel формата                    : Нет
Параметр GMC формата                     : Без точки перехода
Параметр матрицы формата                 : Default (MPEG)
Идентификатор кодека                     : XVID
Идентификатор кодека/Подсказка           : XviD
Продолжительность                        : 1 ч. 57 м.
Битрейт                                  : 746 Кбит/сек
Ширина                                   : 688 пикселей
Высота                                   : 288 пикселей
Соотношение сторон                       : 2,40:1
Частота кадров                           : 23,976 кадра/сек
Цветовое пространство                    : YUV
Субдискретизация насыщенности            : 4:2:0
Битовая глубина                          : 8 бит
Тип развёртки                            : Прогрессивная
Метод сжатия                             : С потерями
Бит/(Пиксели*Кадры)                      : 0.157
Размер потока                            : 629 Мбайт (84%)
Библиотека кодирования                   : XviD 1.2.1 (UTC 2008-12-04)
Аудио
Идентификатор                            : 1
Формат                                   : MPEG Audio
Версия формата                           : Version 1
Профиль формата                          : Layer 3
Идентификатор кодека                     : 55
Идентификатор кодека/Подсказка           : MP3
Продолжительность                        : 1 ч. 57 м.
Вид битрейта                             : Постоянный
Битрейт                                  : 128 Кбит/сек
Каналы                                   : 2 канала
Частота                                  : 48,0 КГц
Метод сжатия                             : С потерями
Размер потока                            : 108 Мбайт (14%)
Выравнивание                             : Соединение по промежуткам
Продолжительность промежутка             : 42  мс. (1,00 видеокадр)
Время предзагрузки промежутка            : 504  мс.
Библиотека кодирования                   : LAME3.97
Настройки программы                      : -m s -V 4 -q 2 -lowpass 17 -b 128
Скриншоты:

-Время раздачи: 9.00 - 23.00 (по мере возможности...)

[Цитировать]



Показать сообщения:    

Текущее время: 10-Дек 19:37

Часовой пояс: UTC + 3


Вы не можете начинать темы
Вы не можете отвечать на сообщения
Вы не можете редактировать свои сообщения
Вы не можете удалять свои сообщения
Вы не можете голосовать в опросах
Вы не можете прикреплять файлы к сообщениям
Вы не можете скачивать файлы

!ВНИМАНИЕ!
Сайт не предоставляет электронные версии произведений, а занимается лишь коллекционированием и каталогизацией ссылок, присылаемых и публикуемых на форуме нашими читателями. Если вы являетесь правообладателем какого-либо представленного материала и не желаете, чтобы ссылка на него находилась в нашем каталоге, свяжитесь с нами, и мы незамедлительно удалим ее. Файлы для обмена на трекере предоставлены пользователями сайта, и администрация не несет ответственности за их содержание. Просьба не заливать файлы, защищенные авторскими правами, а также файлы нелегального содержания!