[ Сегодня идет свободное скачивание без начисления Download ]


Статистика раздачи
Нет
 
   
 
Top  
 
 
-Секс – за деньги, любовь – бесплатно / Nessuno mi puo giudicare (2011) HDTVRip- Русское название: Секс – за деньги, любовь – бесплатно
Оригинальное название: Nessuno mi puo giudicare
Год выпуска: 2011
Выпущено: Италия / Italian International Film, Rai Cinema
Жанр: Комедия
Перевод: Многоголосый закадровый [НТВ+]
Описание фильма:
Тридцатипятилетняя Алиса живет со своим мужем и девятилетним сыном в уютной вилле в престижном районе Рима Париоли. Жизнь ее кажется золотой мечтой, но скоро все это превратится в кошмар. Ее муж погибает в результате несчастного случая, а сама она становится полным банкротом.
Вместе со своим сыном она вынуждена покинуть Париоли и приютиться в предместье Рима, где оказывается совершенно чужой в океане людей самых разных национальностей и культур. Погрязшей в долгах Алисе приходится искать быстрый способ заработать деньги для себя и своего сына. Единственной возможностью для этого оказываются эскорт услуги.
Режиссер: Массимилиано Бруно
Актеры: Паола Кортеллези, Рауль Бова, Рокко Папалео, Анна Фольетта, Джованни Бруно, Хассани Шапи, Валерио Эпри, Паскуале Петроло, Люсия Оконе, Ава Ли

Дата мировой премьеры: 16 марта 2011
Дата выхода DVD релиза: 15 апреля 2013, «Новый Диск»
Продолжительность: 01:33:22
Качество видео: HDTVRip
Видеокодек: MPEG-4 AVC/H.264
Битрейт видео: ~ 3 034 Kbps
Размер кадра: 1280x588
Аудио 1: Русский (АС3, 6 ch, 448 Кбит/с)
Аудио 2: Итальянский (АС3, 6 ch, 448 Кбит/с)
Субтитры: отсутствуют
Релиз от:

MediaInfo:

General
Unique ID : 171140321881073869717489381190988713658 (0x80C06D53D29D02518B2654B1C9D7CEBA)
Complete name : D:\Video\Movies\Seks.za.dengi.ljubov.besplatno.2011.x264.HDTVRip(720p).mkv
Format : Matroska
Format version : Version 2
File size : 2.61 GiB
Duration : 1h 33mn
Overall bit rate : 4 010 Kbps
Encoded date : UTC 2013-03-22 08:19:39
Writing application : mkvmerge v5.4.0 ('Piper') built on Mar 10 2012 13:34:39
Writing library : libebml v1.2.3 + libmatroska v1.3.0
Video
ID : 1
Format : AVC
Format/Info : Advanced Video Codec
Format profile : High@L4.1
Format settings, CABAC : Yes
Format settings, ReFrames : 9 frames
Codec ID : V_MPEG4/ISO/AVC
Duration : 1h 33mn
Bit rate : 3 034 Kbps
Width : 1 280 pixels
Height : 588 pixels
Display aspect ratio : 2.2:1
Frame rate mode : Constant
Frame rate : 25.000 fps
Color space : YUV
Chroma subsampling : 4:2:0
Bit depth : 8 bits
Scan type : Progressive
Bits/(Pixel*Frame) : 0.161
Stream size : 1.98 GiB (76%)
Default : Yes
Forced : No
Audio #1
ID : 2
Format : AC-3
Format/Info : Audio Coding 3
Mode extension : CM (complete main)
Format settings, Endianness : Big
Codec ID : A_AC3
Duration : 1h 33mn
Bit rate mode : Constant
Bit rate : 448 Kbps
Channel(s) : 6 channels
Channel positions : Front: L C R, Side: L R, LFE
Sampling rate : 48.0 KHz
Bit depth : 16 bits
Compression mode : Lossy
Delay relative to video : 16ms
Stream size : 299 MiB (11%)
Language : Russian
Default : Yes
Forced : No
Audio #2
ID : 3
Format : AC-3
Format/Info : Audio Coding 3
Mode extension : CM (complete main)
Format settings, Endianness : Big
Codec ID : A_AC3
Duration : 1h 33mn
Bit rate mode : Constant
Bit rate : 448 Kbps
Channel(s) : 6 channels
Channel positions : Front: L C R, Side: L R, LFE
Sampling rate : 48.0 KHz
Bit depth : 16 bits
Compression mode : Lossy
Delay relative to video : 8ms
Stream size : 299 MiB (11%)
Language : Italian
Default : No
Forced : No

Рецензия, отзыв о фильме

Sanych_golf
Никто не осудит…
Как всегда, первый вопрос возникает с названием фильма. На «Кинопоиске» он проходит, как «Секс бесплатно, любовь за деньги», на «НТВ-плюс» (и в программе, и в дикторском сопровождении фильма как такового), то вовсе напротив: «Секс за деньги, любовь бесплатно». И оригинальное название не помогает разрешить этот ребус, поскольку примерный дословный перевод с итальянского: «Никто не вправе меня осуждать!»
Ну, как и следует ожидать от «итальянской» комедии, там персонажи порой так быстро говорят, что захлебываются наши дикторы-переводчики, а еще — персонажи порой так забавно энергично жестикулируют…
Сюжет фильма в сухом пересказе оставляет мало шансов на комедию: не очень юная (за 30 лет) замужняя дама с ребенком из очень богатой становится очень бедной, погибший муж оставляет одни долги, дамочке, если не расплатится с долгами, грозит тюрьма, сыну приходится перевестись из престижной школы (где ученики ходят в костюмчиках с галстуком и после уроков каждого ждет свой отдельный лимузин с персональным шофером) в более демократичное учебное заведение (более похожее на итальянскую школу, где преподавал Геннадий Хазанов в журнале «Ералаш»). И виллу с бассейном и прислугой приходится сменить на квартал, где все больше мигранты, гастарбайтеры и итальянцы сходного благополучия с теми мигрантами и гастарбайтерами.
И еще выясняется, что нашей главной героине, чтобы погасить долги в срок и избежать тюрьмы, нужно зарабатывать в день ту сумму, которую ей при «честной» работе готовы платить в месяц. И наша героиня решается работать в «эскорт-услугах» или попросту — стать проституткой.
Но вот, в рамках такой сюжетной канвы создателям фильма удается снять не социальную драму, не трагедию, не криминальный триллер, а именно что-то достаточно легкое и романтичное. И при этом не скатиться в эротику, не морализировать попусту и соблюсти (IMHO) хороший вкус.
Конечно, многое в фильме напоминает ситком. Есть набор персонажей, которые обладают своими характерами и действуют в предложенных обстоятельствах. Один из второстепенных персонажей — толстяк (и будут шутки, что много ест). Другой — рогоносец (не хочет прощать измену жене, а жена по ходу фильма неоднократно предпринимает забавные попытки вымолить прощенье). Третий — итальянский «патриот», который постоянно произносит монологи, что «понаехали тут из Африки и Азии в нашу Италию!» (оказывается, «у них» такие тоже есть). Четвертый — с нестандартной ориентацией и т. п.
Не все правдоподобно… А где вы видели правдоподобие в комедии? Вот, действительно, наша героиня и не молода, и застенчиво-наивна, и личные данные не модельные (краешком кадра нам покажут дряблые бедра и маленькую грудь), но под руководством опытной подруги делает сумасшедшую карьеру в сфере платного интима, мелькают банкноты в 500 евро, все у нее получается…
Но я хотел бы после всего этого моего сарказма сказать, что фильм мне все равно понравился. То ли я чего-то совсем непотребного ожидал… Какой-то он теплый, светлый, романтичный. И соседи (те самые мигранты, гастарбайтеры и «патриоты») оказываются неплохие люди (как в советской ностальгической песне: «дни рождения справляют всем двором»), и даже клиенты платного интима — забавные извращенцы, но не откровенные мерзавцы или садисты, а героиню нашу в конце ждет что-то большое и чистое…
В общем, оптимистичный, легкий, пусть и наивный фильм, оставляющий после просмотра очень приятное «послевкусие».
«Мы можем остаться друзьями, даже если наши пути разойдутся!»
«Кто это сказал? Конфуций?»
«Нет, Винни-Пух!»
Скриншоты:

Время раздачи: 24/7 - круглосуточно

[Цитировать]



Показать сообщения:    

Текущее время: 30-Мар 04:55

Часовой пояс: UTC + 6


Вы не можете начинать темы
Вы не можете отвечать на сообщения
Вы не можете редактировать свои сообщения
Вы не можете удалять свои сообщения
Вы не можете голосовать в опросах
Вы не можете прикреплять файлы к сообщениям
Вы не можете скачивать файлы

!ВНИМАНИЕ!
Сайт не предоставляет электронные версии произведений, а занимается лишь коллекционированием и каталогизацией ссылок, присылаемых и публикуемых на форуме нашими читателями. Если вы являетесь правообладателем какого-либо представленного материала и не желаете, чтобы ссылка на него находилась в нашем каталоге, свяжитесь с нами, и мы незамедлительно удалим ее. Файлы для обмена на трекере предоставлены пользователями сайта, и администрация не несет ответственности за их содержание. Просьба не заливать файлы, защищенные авторскими правами, а также файлы нелегального содержания!