[ Сегодня идет свободное скачивание без начисления Download ]


Статистика раздачи
Нет
 
   
 
Top  
 
 
-Кровь за кровь / Four Brothers от R.G. Shadoof- Русское название: Кровь за кровь
Оригинальное название: Four Brothers
Год выпуска: 2005
Производство: США
Жанр: боевик, триллер, драма, криминал, детектив
Перевод: Дублированный (лицензия) + Многоголосый закадровый (Киномания) + Многоголосый закадровый (Tycoon) + Одноголосый закадровый (Ю.Немахов) + Оригинал
Субтитры: Russian (Киномания) (Полные, отдельно), English (Полные, отдельно)-Релиз группы: R.G. Shadoof
Автор рипа : What You Gonna Do ?
-Режиссер: Джон Синглтон
Актёры: Марк Уолберг, Тайриз Гибсон, Андре Бенджамин, Гаррет Хедлунд, Терренс Ховард, Джош Чарльз, София Вергара, Фионнула Флэнаган, Чиветель Эджиофор, Тараджи П. Хенсон- -Описание фильма: Они вернулись домой, чтобы похоронить мать.. и её убийц… Их четверо, они братья, но абсолютно не похожи друг на друга. В детстве их усыновила и воспитала одна и та же женщина. Теперь она мертва, а братья пытаются найти ее убийцу и отплатить ему за пролитую кровь их матери. Чем больше братья занимаются поисками, тем ближе они становятся друг другу, осознавая, что родство душ связывает людей гораздо крепче, чем кровные узы.-Исходник: Кровь за кровь / Four Brothers (2005) 1080p BD-Remux
Продолжительность: 01:48:46
Качество видео: BDRip
Видеокодек: XviD
Битрейт видео: ~2087 kbps
Размер кадра: 720x304
Аудио #1: Русский: 48 kHz, AC3, 3/2 (L,C,R,l,r) + LFE ch, ~384.00 kbps avg |Дубляж, iTunes Russia|
Аудио #2: Русский: 48 kHz, AC3, 3/2 (L,C,R,l,r) + LFE ch, ~384.00 kbps avg |Многоголосый закадровый, Киномания|
Аудио #3: Русский: 48 kHz, AC3, 3/2 (L,C,R,l,r) + LFE ch, ~448.00 kbps avg |Многоголосый закадровый, Tycoon| (Отдельно)
Аудио #4: Русский: 48 kHz, AC3, 3/2 (L,C,R,l,r) + LFE ch, ~448.00 kbps avg |Одноголосый закадровый, Ю.Немахов| (Отдельно)
Аудио #5: Английский: 48 kHz, AC3, 3/2 (L,C,R,l,r) + LFE ch, ~448.00 kbps avg (Отдельно)
-

MediaInfo

Общее
Полное имя                               : C:\Users\iCrab\Desktop\Four.Brothers.2005.BDRip~R.G.Shadoof.avi
Формат                                   : AVI
Формат/Информация                        : Audio Video Interleave
Профиль формата                          : OpenDML
Размер файла                             : 2,18 Гбайт
Продолжительность                        : 1 ч. 48 м.
Общий поток                              : 2872 Кбит/сек
Программа кодирования                    : VirtualDubMod 1.5.10.2 (build 2540/release)
Библиотека кодирования                   : VirtualDubMod build 2540/release
Видео
Идентификатор                            : 0
Формат                                   : MPEG-4 Visual
Профиль формата                          : Advanced [email protected]
Параметр BVOP формата                    : 1
Параметр QPel формата                    : Нет
Параметр GMC формата                     : Без точки перехода
Параметр матрицы формата                 : Выборочная
Идентификатор кодека                     : XVID
Идентификатор кодека/Подсказка           : XviD
Продолжительность                        : 1 ч. 48 м.
Битрейт                                  : 2087 Кбит/сек
Ширина                                   : 720 пикселей
Высота                                   : 304 пикселя
Соотношение сторон                       : 2,35:1
Частота кадров                           : 23,976 кадра/сек
Цветовое пространство                    : YUV
Субдискретизация насыщенности            : 4:2:0
Битовая глубина                          : 8 бит
Тип развёртки                            : Прогрессивная
Метод сжатия                             : С потерями
Бит/(Пиксели*Кадры)                      : 0.398
Размер потока                            : 1,59 Гбайт (73%)
Библиотека кодирования                   : XviD 64
Аудио #1
Идентификатор                            : 1
Формат                                   : AC-3
Формат/Информация                        : Audio Coding 3
Расширение режима                        : CM (complete main)
Параметр Endianness формата              : Big
Идентификатор кодека                     : 2000
Продолжительность                        : 1 ч. 48 м.
Вид битрейта                             : Постоянный
Битрейт                                  : 384 Кбит/сек
Каналы                                   : 6 каналов
Расположение каналов                     : Front: L C R, Side: L R, LFE
Частота                                  : 48,0 КГц
Битовая глубина                          : 16 бит
Метод сжатия                             : С потерями
Размер потока                            : 299 Мбайт (13%)
Выравнивание                             : Разделение по промежуткам
Продолжительность промежутка             : 42  мс. (1,00 видеокадр)
Время предзагрузки промежутка            : 500  мс.
Аудио #2
Идентификатор                            : 2
Формат                                   : AC-3
Формат/Информация                        : Audio Coding 3
Расширение режима                        : CM (complete main)
Параметр Endianness формата              : Big
Идентификатор кодека                     : 2000
Продолжительность                        : 1 ч. 48 м.
Вид битрейта                             : Постоянный
Битрейт                                  : 384 Кбит/сек
Каналы                                   : 6 каналов
Расположение каналов                     : Front: L C R, Side: L R, LFE
Частота                                  : 48,0 КГц
Битовая глубина                          : 16 бит
Метод сжатия                             : С потерями
Размер потока                            : 299 Мбайт (13%)
Выравнивание                             : Разделение по промежуткам
Продолжительность промежутка             : 42  мс. (1,00 видеокадр)
Время предзагрузки промежутка            : 500  мс.
- - --

[Цитировать]



Показать сообщения:    

Текущее время: 04-Дек 23:24

Часовой пояс: UTC + 3


Вы не можете начинать темы
Вы не можете отвечать на сообщения
Вы не можете редактировать свои сообщения
Вы не можете удалять свои сообщения
Вы не можете голосовать в опросах
Вы не можете прикреплять файлы к сообщениям
Вы не можете скачивать файлы

!ВНИМАНИЕ!
Сайт не предоставляет электронные версии произведений, а занимается лишь коллекционированием и каталогизацией ссылок, присылаемых и публикуемых на форуме нашими читателями. Если вы являетесь правообладателем какого-либо представленного материала и не желаете, чтобы ссылка на него находилась в нашем каталоге, свяжитесь с нами, и мы незамедлительно удалим ее. Файлы для обмена на трекере предоставлены пользователями сайта, и администрация не несет ответственности за их содержание. Просьба не заливать файлы, защищенные авторскими правами, а также файлы нелегального содержания!