[ Сегодня идет свободное скачивание без начисления Download ]


Статистика раздачи
Нет
 
   
 
Top  
 
 
-Турбулентность 3: Тяжёлый металл / Turbulence 3: Heavy Metal (2001) WEB-DLRip- Русское название: Турбулентность 3: Тяжёлый металл
Оригинальное название: Turbulence 3: Heavy Metal
Год выпуска: 2001
Жанр: Боевик, Триллер
Описание фильма:
Рок-звезда Слейд Крэйвен организовал небывалый концерт прямо в воздухе на борту гигантского Боинга. Избранные фанаты могут лицезреть кумира живьем, остальные — в прямом эфире по Интернету. Крэйвен жаждет славы! Но находится некто с еще более грандиозными планами и превращает сценическое буйство полета в реальный кошмар!
Режиссер: Хорхе Монтеси
Актеры: Зак Сантьяго, Моника Шнарре, Шарон Александр, Габриэлль Анвар, Рик Бургесс, Берни Колсон, Бренда Кричлоу, Кендалл Кросс, Натаниель Дево, Майк Допуд, Мэррет Грин, Мишель Харрисон, Рутгер Хауэр, Марлоу Кауфман, Эндрю Кавадас, Фред Китинг, Брэд Лори, Джон Манн, Джо Мантенья, Крэйг Шеффер, Хротгар Мэтьюз, Алекс Захара, Бен Деррик, Крэйг Марч, Дэвид Нил, Кейт Роббинс, Райан Роббинс, Крис Уидлинг, Алистэр Эбелл, Брайан Добсон
Продолжительность: 01:36:29
Перевод: Профессиональный, двухголосный (Videogram / Рен тв)
Релиз группа: nova-lan

Видеокодек: Xvid
Битрейт видео: ~1612 Kbps
Размер кадра: 720x400
Качество видео: WEB-DLRip
Аудио 1: AC3, 384 Kbps, 6.0, 48 КГц Русский
Аудио 2: AC3, 192 Kbps, 2.0, 48 КГц Русский
Аудио 3: AC3, 384 Kbps, 6.0, 48 КГц Английский

MediaInfo:

General
Format : AVI
Format/Info : Audio Video Interleave
File size : 1.75 GiB
Duration : 1h 36mn
Overall bit rate : 2 590 Kbps
Writing application : VirtualDubMod 1.5.10.2 (build 2542/release)
Writing library : VirtualDubMod build 2542/release
Video #0
ID : 0
Format : MPEG-4 Visual
Format profile : [email protected]
Format settings, BVOP : No
Format settings, QPel : No
Format settings, GMC : No warppoints
Format settings, Matrix : Default (H.263)
Codec ID : XVID
Codec ID/Hint : XviD
Duration : 1h 36mn
Bit rate : 1 612 Kbps
Width : 720 pixels
Height : 400 pixels
Display aspect ratio : 16:9
Frame rate : 23.976 fps
Color space : YUV
Chroma subsampling : 4:2:0
Bit depth : 8 bits
Scan type : Progressive
Compression mode : Lossy
Bits/(Pixel*Frame) : 0.233
Stream size : 1.09 GiB (62%)
Writing library : XviD 1.1.2 (UTC 2006-11-01)
Audio #1
ID : 1
Format : AC-3
Format/Info : Audio Coding 3
Mode extension : CM (complete main)
Codec ID : 2000
Duration : 1h 36mn
Bit rate mode : Constant
Bit rate : 384 Kbps
Channel(s) : 6 channels
Channel positions : Front: L C R, Side: L R, LFE
Sampling rate : 48.0 KHz
Bit depth : 16 bits
Compression mode : Lossy
Stream size : 265 MiB (15%)
Alignment : Split accross interleaves
Interleave, duration : 42 ms (1.00 video frame)
Interleave, preload duration : 500 ms
Audio #2
ID : 2
Format : AC-3
Format/Info : Audio Coding 3
Mode extension : CM (complete main)
Codec ID : 2000
Duration : 1h 36mn
Bit rate mode : Constant
Bit rate : 192 Kbps
Channel(s) : 2 channels
Channel positions : Front: L R
Sampling rate : 48.0 KHz
Bit depth : 16 bits
Compression mode : Lossy
Stream size : 133 MiB (7%)
Alignment : Split accross interleaves
Interleave, duration : 42 ms (1.00 video frame)
Interleave, preload duration : 500 ms
Audio #3
ID : 3
Format : AC-3
Format/Info : Audio Coding 3
Mode extension : CM (complete main)
Codec ID : 2000
Duration : 1h 36mn
Bit rate mode : Constant
Bit rate : 384 Kbps
Channel(s) : 6 channels
Channel positions : Front: L C R, Side: L R, LFE
Sampling rate : 48.0 KHz
Bit depth : 16 bits
Compression mode : Lossy
Stream size : 265 MiB (15%)
Alignment : Split accross interleaves
Interleave, duration : 42 ms (1.00 video frame)
Interleave, preload duration : 500 ms
Скриншоты:

Время раздачи: (23/3 - 20/4 круглосуточно)

[Цитировать]



Показать сообщения:    

Текущее время: 04-Дек 11:16

Часовой пояс: UTC + 3


Вы не можете начинать темы
Вы не можете отвечать на сообщения
Вы не можете редактировать свои сообщения
Вы не можете удалять свои сообщения
Вы не можете голосовать в опросах
Вы не можете прикреплять файлы к сообщениям
Вы не можете скачивать файлы

!ВНИМАНИЕ!
Сайт не предоставляет электронные версии произведений, а занимается лишь коллекционированием и каталогизацией ссылок, присылаемых и публикуемых на форуме нашими читателями. Если вы являетесь правообладателем какого-либо представленного материала и не желаете, чтобы ссылка на него находилась в нашем каталоге, свяжитесь с нами, и мы незамедлительно удалим ее. Файлы для обмена на трекере предоставлены пользователями сайта, и администрация не несет ответственности за их содержание. Просьба не заливать файлы, защищенные авторскими правами, а также файлы нелегального содержания!