[ Сегодня идет свободное скачивание без начисления Download ]


Статистика раздачи
Нет
 
   
 
Top  
 
 
-Правое дело / Just Cause (1995) BDRip- Русское название: Правое дело
Оригинальное название: Just Cause
Год выпуска: 1995
Страна: США
Слоган: «Болота Флориды скрывают тайну, от разгадки которой зависит, будет ли спасена жизнь невинного человека.»
Жанр: триллер, драма, криминал, детектив--Режиссер: Арн Глимчер
Актеры: Шон Коннери (Paul Armstrong), Лоренс Фишбёрн (Sheriff Tanny Brown), Кейт Кэпшоу (Laurie Prentiss Armstrong), Блэр Андервуд (Bobby Earl), Эд Харрис (Blair Sullivan), Кристофер Мюррэй (Detective T.J. Wilcox), Руби Ди (Evangeline), Скарлетт Йоханссон (Katie Armstrong), Дэниел Дж. Траванти (Warden), Нед Битти (McNair), Лиз Торрес (Delores Rodriguez), Линн Тигпен (Ida Conklin)
Дублёры: Анатолий Кузнецов (Paul Armstrong), Дмитрий Полонский (Sheriff Tanny Brown), Любовь Германова (Laurie Prentiss Armstrong), Вадим Курков (Bobby Earl), Андрей Ташков (Blair Sullivan), Александр Вдовин (Detective T.J. Wilcox), Виктория Радунская (Evangeline), Елена Соловьева (Katie Armstrong), Юрий Саранцев (McNair), Игорь Тарадайкин-Описание фильма: В болотах Флориды находят зверски убитую девочку. В убийстве обвиняют Бобби Эрла Фергюсона. В то время, как этот человек, которому грозит электрический стул, находится в камере смертников, гарвардский профессор Пол Армстронг пытается еще раз расследовать это преступление.
Все глубже проникает он в сплетение расизма, интриг и преступлений, однако истина оказывается страшнее самых худших его предположений...- -Продолжительность: 01:42:20
Перевод: Дублированный, многоголосый
Язык субтитров: Русские, английские
Вид субтитров: Вшитые отключаемые--Качество видео: BDRip
Видеокодек: MPEG-4 AVC
Битрейт видео: ~2 284 Кбит/с
Размер кадра: 1152x480
Аудио 1: Русский: AC3; 192 Kbps; CBR; 2 ch
Аудио 2: Русский: AC3; 192 Kbps; CBR; 2 ch
Аудио 3: Англ-ий: AC3; 384 Kbps; CBR; 6 ch
-

MediaInfo:

General
Unique ID : 211437355557010980286427553786362043682 (0x9F115A7B3C60A7169B4DC3FA56B39D22)
Complete name : D:\Pravoe.Delo.1995.(H.264).BDRip.mkv
Format : Matroska
Format version : Version 2
File size : 2.18 GiB
Duration : 1h 42mn
Overall bit rate : 3 054 Kbps
Encoded date : UTC 2012-07-26 07:43:29
Writing application : mkvmerge v3.2.0 ('Beginnings') built on Feb 12 2010 16:46:17
Writing library : libebml v0.7.9 + libmatroska v0.8.1
Video
ID : 1
Format : AVC
Format/Info : Advanced Video Codec
Format profile : High@L4.1
Format settings, CABAC : Yes
Format settings, ReFrames : 14 frames
Codec ID : V_MPEG4/ISO/AVC
Duration : 1h 42mn
Bit rate : 2 284 Kbps
Width : 1 152 pixels
Height : 480 pixels
Display aspect ratio : 2.40:1
Frame rate mode : Constant
Frame rate : 23.976 fps
Color space : YUV
Chroma subsampling : 4:2:0
Bit depth : 8 bits
Scan type : Progressive
Bits/(Pixel*Frame) : 0.172
Stream size : 1.59 GiB (73%)
Writing library : x264 core 125 r2200 999b753
Encoding settings : cabac=1 / ref=14 / deblock=1:-3:-2 / analyse=0x3:0x133 / me=umh / subme=11 / psy=1 / psy_rd=1.10:0.05 / mixed_ref=1 / me_range=24 / chroma_me=1 / trellis=2 / 8x8dct=1 / cqm=0 / deadzone=21,11 / fast_pskip=0 / chroma_qp_offset=-3 / threads=6 / lookahead_threads=1 / sliced_threads=0 / nr=0 / decimate=1 / interlaced=0 / bluray_compat=0 / constrained_intra=0 / bframes=8 / b_pyramid=2 / b_adapt=2 / b_bias=0 / direct=3 / weightb=1 / open_gop=0 / weightp=2 / keyint=240 / keyint_min=22 / scenecut=40 / intra_refresh=0 / rc=2pass / mbtree=0 / bitrate=2284 / ratetol=1.0 / qcomp=0.70 / qpmin=10 / qpmax=61 / qpstep=4 / cplxblur=20.0 / qblur=0.5 / ip_ratio=1.40 / pb_ratio=1.30 / aq=1:0.70
Language : English
Default : No
Forced : No
Audio #1
ID : 2
Format : AC-3
Format/Info : Audio Coding 3
Mode extension : CM (complete main)
Format settings, Endianness : Big
Codec ID : A_AC3
Duration : 1h 42mn
Bit rate mode : Constant
Bit rate : 192 Kbps
Channel(s) : 2 channels
Channel positions : Front: L R
Sampling rate : 48.0 KHz
Bit depth : 16 bits
Compression mode : Lossy
Stream size : 141 MiB (6%)
Title : Дубляж, [Варус]
Language : Russian
Default : Yes
Forced : No
Audio #2
ID : 3
Format : AC-3
Format/Info : Audio Coding 3
Mode extension : CM (complete main)
Format settings, Endianness : Big
Codec ID : A_AC3
Duration : 1h 42mn
Bit rate mode : Constant
Bit rate : 192 Kbps
Channel(s) : 2 channels
Channel positions : Front: L R
Sampling rate : 48.0 KHz
Bit depth : 16 bits
Compression mode : Lossy
Stream size : 141 MiB (6%)
Title : Многоголосый, [ВГТРК]
Language : Russian
Default : No
Forced : No
Audio #3
ID : 4
Format : AC-3
Format/Info : Audio Coding 3
Mode extension : CM (complete main)
Format settings, Endianness : Big
Codec ID : A_AC3
Duration : 1h 42mn
Bit rate mode : Constant
Bit rate : 384 Kbps
Channel(s) : 6 channels
Channel positions : Front: L C R, Side: L R, LFE
Sampling rate : 48.0 KHz
Bit depth : 16 bits
Compression mode : Lossy
Stream size : 281 MiB (13%)
Title : Оригинал
Language : English
Default : No
Forced : No
Text #1
ID : 5
Format : UTF-8
Codec ID : S_TEXT/UTF8
Codec ID/Info : UTF-8 Plain Text
Language : Russian
Default : Yes
Forced : No
Text #2
ID : 6
Format : UTF-8
Codec ID : S_TEXT/UTF8
Codec ID/Info : UTF-8 Plain Text
Language : Russian
Default : No
Forced : No
Menu
00:00:00.000 : en:00:00:00.000
00:03:54.234 : en:00:03:54.234
00:07:22.609 : en:00:07:22.609
00:09:26.649 : en:00:09:26.649
00:13:00.029 : en:00:13:00.029
00:19:07.730 : en:00:19:07.730
00:22:38.315 : en:00:22:38.315
00:26:31.840 : en:00:26:31.840
00:29:26.390 : en:00:29:26.390
00:32:15.433 : en:00:32:15.433
00:36:17.425 : en:00:36:17.425
00:38:07.911 : en:00:38:07.911
00:41:07.840 : en:00:41:07.840
00:44:39.635 : en:00:44:39.635
00:48:03.672 : en:00:48:03.672
00:51:06.814 : en:00:51:06.814
00:55:31.578 : en:00:55:31.578
00:58:21.998 : en:00:58:21.998
01:04:42.629 : en:01:04:42.629
01:07:13.363 : en:01:07:13.363
01:09:38.091 : en:01:09:38.091
01:12:20.419 : en:01:12:20.419
01:15:25.563 : en:01:15:25.563
01:19:07.034 : en:01:19:07.034
01:21:27.257 : en:01:21:27.257
01:27:54.436 : en:01:27:54.436
01:31:26.606 : en:01:31:26.606
01:33:05.205 : en:01:33:05.205
01:36:01.005 : en:01:36:01.005
01:37:52.450 : en:01:37:52.450
-Скриншоты:
-Время раздачи: С 09:00 до 24:00

[Цитировать]



Показать сообщения:    

Текущее время: 08-Дек 23:09

Часовой пояс: UTC + 3


Вы не можете начинать темы
Вы не можете отвечать на сообщения
Вы не можете редактировать свои сообщения
Вы не можете удалять свои сообщения
Вы не можете голосовать в опросах
Вы не можете прикреплять файлы к сообщениям
Вы не можете скачивать файлы

!ВНИМАНИЕ!
Сайт не предоставляет электронные версии произведений, а занимается лишь коллекционированием и каталогизацией ссылок, присылаемых и публикуемых на форуме нашими читателями. Если вы являетесь правообладателем какого-либо представленного материала и не желаете, чтобы ссылка на него находилась в нашем каталоге, свяжитесь с нами, и мы незамедлительно удалим ее. Файлы для обмена на трекере предоставлены пользователями сайта, и администрация не несет ответственности за их содержание. Просьба не заливать файлы, защищенные авторскими правами, а также файлы нелегального содержания!