[ Сегодня идет свободное скачивание без начисления Download ]


Статистика раздачи
Нет
 
   
 
Top  
 
 
-Огненная корона / Coroana de foc (1990) DVDRip- Русское название: Огненная корона
Оригинальное название: Coroana de foc
Год выпуска: 1990
Жанр: Фэнтези, Приключения
Описание фильма:Время рыцарей, чести и в то же время, жестоких нравов: брат идет войной на брата, проливается кровь невинных младенцев... Но бремя благородности все же есть кому нести...
Спасая младенца, обреченного на гибель , в свое время присягнувший на верность королю, капитан Гарун тем самым, обрекает на смерть себя. Но вмешивается Время (в данной киноленте - одушевленный персонаж) - и капитану отведен дополнительный срок для воспитания будущего наследника престола.
В это время, второй брат (по закону жанра злой, подлый и кровожадный) стремится отвоевать корону у своего родителя. Его манит золотая корона и волшебные мечи, хранящиеся в пещере - но завладеть сокровищами не просто - ими может воспользоваться только самый достойный - непроливший невинной крови.
Режиссер: Серджиу Николаеску
Актеры: Серджиу Николаеску, Вирджил Флонда, Владимир Гаитан, Штефан Велничиук, Мануэла Харабор, Джордж Александру, Ион Рициу, Рамона Ионеску, Корнелия Павловичи, Симона Соманческу
Продолжительность: 01:35:00
Перевод: Дублированный

Видеокодек: Xvid
Битрейт видео: 1433 Кбит/сек
Размер кадра: 688x528
Качество видео: DVDRip
Аудио 1: AC3, 48 kHz, 128 kbps, 2 ch - Русский дубляж
Аудио 2: MP3, 44,1 kHz, 128 kbps, 2 ch - Румынский оригинал
Все релизы

MediaInfo

Общее
Полное имя : D:\фильмы\Coroana de foc.avi
Формат : AVI
Формат/Информация : Audio Video Interleave
Размер файла : 1,19 Гбайт
Продолжительность : 1 ч. 35 м.
Общий поток : 1770 Кбит/сек
Программа кодирования : VirtualDubMod 1.5.10.2 (build 2540/release)
Библиотека кодирования : VirtualDubMod build 2540/release
Видео
Идентификатор : 0
Формат : MPEG-4 Visual
Профиль формата : [email protected]
Параметр BVOP формата : Нет
Параметр QPel формата : Нет
Параметр GMC формата : Без точки перехода
Параметр матрицы формата : Default (H.263)
Идентификатор кодека : XVID
Идентификатор кодека/Подсказка : XviD
Продолжительность : 1 ч. 35 м.
Битрейт : 1433 Кбит/сек
Ширина : 688 пикселей
Высота : 528 пикселей
Соотношение сторон : 4:3
Частота кадров : 25,000 кадров/сек
Цветовое пространство : YUV
Субдискретизация насыщенности : 4:2:0
Битовая глубина : 8 бит
Тип развёртки : Прогрессивная
Метод сжатия : С потерями
Бит/(Пиксели*Кадры) : 0.158
Размер потока : 983 Мбайт (81%)
Библиотека кодирования : XviD 1.1.2 (UTC 2006-11-01)
Аудио #1
Идентификатор : 1
Формат : AC-3
Формат/Информация : Audio Coding 3
Расширение режима : CM (complete main)
Параметр Endianness формата : Big
Идентификатор кодека : 2000
Продолжительность : 1 ч. 35 м.
Вид битрейта : Постоянный
Битрейт : 128 Кбит/сек
Каналы : 2 канала
Расположение каналов : Front: L R
Частота : 48,0 КГц
Битовая глубина : 16 бит
Метод сжатия : С потерями
Размер потока : 87,8 Мбайт (7%)
Выравнивание : Разделение по промежуткам
Аудио #2
Идентификатор : 2
Формат : MPEG Audio
Версия формата : Version 1
Профиль формата : Layer 3
Режим : Joint stereo
Расширение режима : MS Stereo
Идентификатор кодека : 55
Идентификатор кодека/Подсказка : MP3
Продолжительность : 1 ч. 35 м.
Вид битрейта : Постоянный
Битрейт : 128 Кбит/сек
Каналы : 2 канала
Частота : 44,1 КГц
Метод сжатия : С потерями
Задержка видео : 26 мс.
Размер потока : 87,8 Мбайт (7%)
Выравнивание : Разделение по промежуткам
Скриншоты:

Время раздачи: 24/7 до 5 сидов

[Цитировать]



Показать сообщения:    

Текущее время: 06-Дек 15:13

Часовой пояс: UTC + 3


Вы не можете начинать темы
Вы не можете отвечать на сообщения
Вы не можете редактировать свои сообщения
Вы не можете удалять свои сообщения
Вы не можете голосовать в опросах
Вы не можете прикреплять файлы к сообщениям
Вы не можете скачивать файлы

!ВНИМАНИЕ!
Сайт не предоставляет электронные версии произведений, а занимается лишь коллекционированием и каталогизацией ссылок, присылаемых и публикуемых на форуме нашими читателями. Если вы являетесь правообладателем какого-либо представленного материала и не желаете, чтобы ссылка на него находилась в нашем каталоге, свяжитесь с нами, и мы незамедлительно удалим ее. Файлы для обмена на трекере предоставлены пользователями сайта, и администрация не несет ответственности за их содержание. Просьба не заливать файлы, защищенные авторскими правами, а также файлы нелегального содержания!