[ Сегодня идет свободное скачивание без начисления Download ]


Статистика раздачи
Нет
 
   
 
Top  
 
 
-Фанатка / Swimfan (2002) WEB-DL- Русское название: Фанатка
Оригинальное название: Swimfan
Год выпуска: 2002
Страна: США
Слоган: «Hold...Your...Breath...»
Жанр: Триллер, драма--Режиссер: Джон Полсон
Актеры: Джесси Брэдфорд (Ben Cronin), Эрика Кристенсен (Madison Bell), Шири Эпплби (Amy Miller), Кейт Бёртон (Carla Cronin), Клейн Кроуфорд (Josh), Джейсон Риттер (Randy), Киа Гудвин (Rene), Дэн Хедайя (Coach Simkins), Майкл Хиггинс (Mr. Tillman), Ник Сэндоу (Detective John Zabel), Памела Айзекс (Mrs. Egan), Джеймс ДеБелло (Christopher Dante)
Дублёры: Денис Беспалый (Ben Cronin), Наталья Казначеева (Madison Bell), Нина Тобилевич (Amy Miller), Людмила Ильина (Carla Cronin), Олег Куценко (Coach Simkins), Рудольф Панков (Mr. Tillman), Вячеслав Баранов (Detective John Zabel), Александр Морозов (Christopher Dante)-Описание фильма: Бен Кронин — баловень судьбы, предмет восхищения многочисленных друзей и поклонников. У него потрясающая подружка и неплохие перспективы попасть в университетскую спортивную команду. Не думайте, что все это дается ему легко — каждый день Бен проводит в бассейне много часов в непрерывных тренировках, работает в местной больнице и с трудом находит время, чтобы провести его со своей любимой Эми. Внезапно жизнь Бена переворачивается вверх тормашками. В город приезжает "новая девчонка" — Мэдисон Белл, и сразу кладет глаз на симпатичного парня. Их первые встречи довольно невинны, но она хочет большего… Соблазнение Бена — лишь начало; она становится его самой верной фанаткой и одновременно — его ночным кошмаром, когда ее навязчивость переходит в ярость, предательство и убийство…- -Продолжительность: 01:24:55
Перевод: Дублированный
Язык субтитров: Русские, английские
Вид субтитров: Вшитые отключаемые--Качество видео: WEB-DL
Видеокодек: MPEG-4 AVC
Битрейт видео: ~3 701 Кбит/с
Размер кадра: 1280x544
Аудио 1: Русский: AC3, 6 ch, 448 Кбит/с
Аудио 2: Англ-ий: AC3, 6 ch, 448 Кбит/с
-

MediaInfo:

General
Unique ID : 207462704622966304320904273640898395069 (0x9C13DD0F7EDD1D30A8866674AA7F7BBD)
Complete name : D:\Swimfan.2002.WEB-DL.720p.mkv
Format : Matroska
Format version : Version 4 / Version 2
File size : 2.78 GiB
Duration : 1h 24mn
Overall bit rate : 4 691 Kbps
Movie name : Swimfan (2002)
Encoded date : UTC 2013-03-22 18:24:35
Writing application : mkvmerge v6.1.0 ('Old Devil') built on Mar 2 2013 14:32:37
Writing library : libebml v1.3.0 + libmatroska v1.4.0
Video
ID : 1
Format : AVC
Format/Info : Advanced Video Codec
Format profile : [email protected]
Format settings, CABAC : No
Format settings, ReFrames : 2 frames
Codec ID : V_MPEG4/ISO/AVC
Duration : 1h 24mn
Bit rate : 3 701 Kbps
Width : 1 280 pixels
Height : 544 pixels
Display aspect ratio : 2.35:1
Frame rate mode : Constant
Frame rate : 23.976 fps
Color space : YUV
Chroma subsampling : 4:2:0
Bit depth : 8 bits
Scan type : Progressive
Bits/(Pixel*Frame) : 0.222
Stream size : 2.20 GiB (79%)
Language : English
Default : Yes
Forced : No
Color primaries : BT.709
Transfer characteristics : BT.709
Matrix coefficients : BT.709
Audio #1
ID : 2
Format : AC-3
Format/Info : Audio Coding 3
Mode extension : CM (complete main)
Format settings, Endianness : Big
Codec ID : A_AC3
Duration : 1h 24mn
Bit rate mode : Constant
Bit rate : 448 Kbps
Channel(s) : 6 channels
Channel positions : Front: L C R, Side: L R, LFE
Sampling rate : 48.0 KHz
Bit depth : 16 bits
Compression mode : Lossy
Stream size : 272 MiB (10%)
Title : AC3 6ch 448kbps - дубляж (МОСФИЛЬМ-мастер 2002, DVD R5 «West»)
Language : Russian
Default : Yes
Forced : No
Audio #2
ID : 3
Format : AC-3
Format/Info : Audio Coding 3
Mode extension : CM (complete main)
Format settings, Endianness : Big
Codec ID : A_AC3
Duration : 1h 24mn
Bit rate mode : Constant
Bit rate : 448 Kbps
Channel(s) : 6 channels
Channel positions : Front: L C R, Side: L R, LFE
Sampling rate : 48.0 KHz
Bit depth : 16 bits
Compression mode : Lossy
Stream size : 272 MiB (10%)
Title : AC3 6ch 448kbps (2002, DVD R5 «West»)
Language : English
Default : No
Forced : No
Text #1
ID : 4
Format : UTF-8
Codec ID : S_TEXT/UTF8
Codec ID/Info : UTF-8 Plain Text
Language : Russian
Default : No
Forced : No
Text #2
ID : 5
Format : UTF-8
Codec ID : S_TEXT/UTF8
Codec ID/Info : UTF-8 Plain Text
Language : English
Default : No
Forced : No
Menu
00:00:00.000 : en:Main Titles
00:03:25.000 : en:Ben
00:06:50.000 : en:Madison
00:13:29.000 : en:Madison's Music
00:19:18.000 : en:Swimming
00:26:33.000 : en:A Party
00:30:12.000 : en:Swimfan85
00:32:51.000 : en:Mom's Birthday
00:37:25.000 : en:More E-mail
00:39:11.000 : en:Making Friends
00:46:12.000 : en:Amy Finds Out
00:49:53.000 : en:The Swim Meet
00:53:11.000 : en:Talking it Over
00:55:47.000 : en:The Death of a Friend
00:58:27.000 : en:Searching for Evidence
01:01:58.000 : en:Jake Donnelly
01:07:54.000 : en:The Set-Up
01:12:20.000 : en:Amy Gets a Visitor
01:16:29.000 : en:At the Pool
01:20:48.000 : en:End Titles
-Скриншоты:
-Время раздачи: С 09:00 до 24:00

[Цитировать]



Показать сообщения:    

Текущее время: 06-Дек 06:00

Часовой пояс: UTC + 3


Вы не можете начинать темы
Вы не можете отвечать на сообщения
Вы не можете редактировать свои сообщения
Вы не можете удалять свои сообщения
Вы не можете голосовать в опросах
Вы не можете прикреплять файлы к сообщениям
Вы не можете скачивать файлы

!ВНИМАНИЕ!
Сайт не предоставляет электронные версии произведений, а занимается лишь коллекционированием и каталогизацией ссылок, присылаемых и публикуемых на форуме нашими читателями. Если вы являетесь правообладателем какого-либо представленного материала и не желаете, чтобы ссылка на него находилась в нашем каталоге, свяжитесь с нами, и мы незамедлительно удалим ее. Файлы для обмена на трекере предоставлены пользователями сайта, и администрация не несет ответственности за их содержание. Просьба не заливать файлы, защищенные авторскими правами, а также файлы нелегального содержания!