[ Сегодня идет свободное скачивание без начисления Download ]


Статистика раздачи
Нет
 
   
 
Top  
 
 
-Дочь моего босса / My Boss's Daughter (2003) BDRip- Русское название: Дочь моего босса
Оригинальное название: My Boss's Daughter
Год выпуска: 2003
Страна: США
Слоган: «There are some things you just don't do.»
Жанр: Мелодрама, комедия--Режиссер: Дэвид Цукер
Актеры: Эштон Кутчер (Tom Stansfield), Тара Рид (Lisa Taylor), Теренс Стэмп (Jack Taylor), Молли Шеннон (Audrey Bennett), Джон Абрахамс (Paul), Энди Рихтер (Red Taylor), Тайлер Лэбин (Spike), Майкл Мэдсен (T.J.), Патрик Крэншо (Old Man), Дэвид Кокнер (Speed), Рон Селмур (Darryl), Кенан Томпсон (Hans)-Описание фильма: Строгий начальник просит своего безотказного молодого сотрудника присмотреть за его домом в течение одного вечера. Добросовестный парнишка вынужден согласиться, к тому же, ему очень нравится симпатичная дочка босса. Но в эту сумасшедшую ночь улетает любимый филин босса, ради присмотра за которым в первую очередь был вызван герой, дом атакуют незваные гости, и, наконец, на огонек заглядывает некий злобный гангстер, превращая этот балаган в настоящий хаос...- -Продолжительность: 01:30:07
Перевод: Многоголосый закадровый
Язык субтитров: Русские, английские
Вид субтитров: Вшитые отключаемые--Качество видео: BDRip
Видеокодек: MPEG-4 AVC/H.264
Битрейт видео: ~1776 Kбит/с
Размер кадра: 1024x576
Аудио 1: Русский: AC3; 384 Kbps; CBR; 6 ch
Аудио 2: Англ-ий: AC3; 448 Kbps; CBR; 6 ch
-

MediaInfo:

General
Unique ID : 229066585384685147747564394287978486637 (0xAC549E9E706E46EC902629D9ABE39B6D)
Complete name : D:\Doch.moego.bossa.2003.(H.264).BDRip.mkv
Format : Matroska
Format version : Version 2
File size : 1.64 GiB
Duration : 1h 30mn
Overall bit rate : 2 610 Kbps
Encoded date : UTC 2013-03-20 16:23:52
Writing application : mkvmerge v5.8.0 ('No Sleep / Pillow') built on Sep 2 2012 15:37:04
Writing library : libebml v1.2.3 + libmatroska v1.3.0
Video
ID : 1
Format : AVC
Format/Info : Advanced Video Codec
Format profile : High@L4.1
Format settings, CABAC : Yes
Format settings, ReFrames : 9 frames
Codec ID : V_MPEG4/ISO/AVC
Duration : 1h 30mn
Bit rate : 1 776 Kbps
Width : 1 024 pixels
Height : 576 pixels
Display aspect ratio : 16:9
Frame rate mode : Constant
Frame rate : 23.976 fps
Color space : YUV
Chroma subsampling : 4:2:0
Bit depth : 8 bits
Scan type : Progressive
Bits/(Pixel*Frame) : 0.126
Stream size : 1.09 GiB (66%)
Writing library : x264 core 125 r2208 d9d2288
Encoding settings : cabac=1 / ref=9 / deblock=1:-1:-1 / analyse=0x3:0x133 / me=umh / subme=11 / psy=1 / psy_rd=1.00:0.10 / mixed_ref=1 / me_range=32 / chroma_me=1 / trellis=2 / 8x8dct=1 / cqm=0 / deadzone=21,11 / fast_pskip=0 / chroma_qp_offset=-3 / threads=6 / lookahead_threads=1 / sliced_threads=0 / nr=0 / decimate=1 / interlaced=0 / bluray_compat=0 / constrained_intra=0 / bframes=9 / b_pyramid=2 / b_adapt=2 / b_bias=0 / direct=3 / weightb=1 / open_gop=0 / weightp=2 / keyint=240 / keyint_min=23 / scenecut=40 / intra_refresh=0 / rc_lookahead=50 / rc=2pass / mbtree=1 / bitrate=1776 / ratetol=1.0 / qcomp=0.60 / qpmin=0 / qpmax=69 / qpstep=4 / cplxblur=20.0 / qblur=0.5 / ip_ratio=1.40 / aq=1:1.00
Default : Yes
Forced : No
Audio #1
ID : 2
Format : AC-3
Format/Info : Audio Coding 3
Mode extension : CM (complete main)
Format settings, Endianness : Big
Codec ID : A_AC3
Duration : 1h 30mn
Bit rate mode : Constant
Bit rate : 384 Kbps
Channel(s) : 6 channels
Channel positions : Front: L C R, Side: L R, LFE
Sampling rate : 48.0 KHz
Bit depth : 16 bits
Compression mode : Lossy
Stream size : 248 MiB (15%)
Title : MVO R5 AC3 5.1 384 kbps
Language : Russian
Default : Yes
Forced : No
Audio #2
ID : 3
Format : AC-3
Format/Info : Audio Coding 3
Mode extension : CM (complete main)
Format settings, Endianness : Big
Codec ID : A_AC3
Duration : 1h 30mn
Bit rate mode : Constant
Bit rate : 448 Kbps
Channel(s) : 6 channels
Channel positions : Front: L C R, Side: L R, LFE
Sampling rate : 48.0 KHz
Bit depth : 16 bits
Compression mode : Lossy
Stream size : 289 MiB (17%)
Title : R1 AC3 5.1 448 kbps
Language : English
Default : No
Forced : No
Text #1
ID : 4
Format : UTF-8
Codec ID : S_TEXT/UTF8
Codec ID/Info : UTF-8 Plain Text
Language : English
Default : No
Forced : No
Text #2
ID : 5
Format : UTF-8
Codec ID : S_TEXT/UTF8
Codec ID/Info : UTF-8 Plain Text
Language : Russian
Default : No
Forced : No
Menu
00:00:00.000 : en:
00:04:03.243 : en:
00:11:18.636 : en:
00:16:10.970 : en:
00:28:01.680 : en:
00:32:47.924 : en:
00:38:10.288 : en:
00:43:22.600 : en:
00:48:35.746 : en:
00:53:35.546 : en:
01:00:15.070 : en:
01:07:01.017 : en:
01:12:28.344 : en:
01:16:50.856 : en:
01:19:25.719 : en:
-Скриншоты:
-Время раздачи: С 09:00 до 24:00

[Цитировать]



Показать сообщения:    

Текущее время: 07-Дек 19:25

Часовой пояс: UTC + 3


Вы не можете начинать темы
Вы не можете отвечать на сообщения
Вы не можете редактировать свои сообщения
Вы не можете удалять свои сообщения
Вы не можете голосовать в опросах
Вы не можете прикреплять файлы к сообщениям
Вы не можете скачивать файлы

!ВНИМАНИЕ!
Сайт не предоставляет электронные версии произведений, а занимается лишь коллекционированием и каталогизацией ссылок, присылаемых и публикуемых на форуме нашими читателями. Если вы являетесь правообладателем какого-либо представленного материала и не желаете, чтобы ссылка на него находилась в нашем каталоге, свяжитесь с нами, и мы незамедлительно удалим ее. Файлы для обмена на трекере предоставлены пользователями сайта, и администрация не несет ответственности за их содержание. Просьба не заливать файлы, защищенные авторскими правами, а также файлы нелегального содержания!