[ Сегодня идет свободное скачивание без начисления Download ]


Статистика раздачи
Нет
 
   
 
Top  
 
 
-Агент Хамилтон: Похищенная / Hamilton: Men inte om det galler din dotter (2012) HDRip- Русское название: Агент Хамилтон: Похищенная
Оригинальное название: Hamilton: Men inte om det galler din dotter
Год выпуска: 2012
Производство: Швеция | Pampas Produktion, Kanzaman, TV4 Sweden
Жанр: Боевик, Триллер, Драма
Описание фильма:
У знакомой Хамилтона похищают дочь, после того как она выступила перед журналистами с критикой одной мусульманской группировки. Но это не простое похищение, оно несёт как политический, так и личный характер. С помощью отца девочки Хамильтон решает отправится на поиски пропавшей девочки и брутально отомстить похитителям…
Режиссер: Тобиас Фальк
Актеры: Микаэл Персбрандт, Стивен Вэддингтон, Джон Лайт, Frida Hallgren, Дэвид Ринтул, Кэл Макэнинк, Питер Эггерс, Милинд Соман, Найджел Уитми, Саба Мубарак
Продолжительность: 01:29:47
Перевод: Многоголосый закадровый, профессиональный
Субтитры: Отсутствуют

Дата мировой премьеры: 7 сентября 2012
Дата выхода DVD релиза: 25 марта 2013, «Новый Диск»
Видеокодек: Xvid
Битрейт видео: ~1721 kb/s
Размер кадра: 720x304
Качество видео: HDRip
Аудиокодек: AC3 6.0
Битрейт аудио: 448 kb/s

MediaInfo:

Общее
Полное имя : C:\Торренты\Agent.Hamilton.Pohishhennaja.2012.HDRip.avi
Формат : AVI
Формат/Информация : Audio Video Interleave
Размер файла : 1,37 Гбайт
Продолжительность : 1 ч. 29 м.
Общий поток : 2179 Кбит/сек
Название фильма : Agent.Hamilton.Pohishhennaja.2012.P.HDRip
Режиссёр : IRONCLUB
Жанр : Action | Drama | Thriller
Программа кодирования : VirtualDubMod 1.5.10.2 (build 2540/release)
Формат оригинала/Имя : Movie
Видео
Идентификатор : 0
Формат : MPEG-4 Visual
Профиль формата : Advanced [email protected]
Параметр BVOP формата : 1
Параметр QPel формата : Нет
Параметр GMC формата : Без точки перехода
Параметр матрицы формата : Выборочная
Идентификатор кодека : XVID
Идентификатор кодека/Подсказка : XviD
Продолжительность : 1 ч. 29 м.
Битрейт : 1722 Кбит/сек
Ширина : 720 пикселей
Высота : 304 пикселя
Соотношение сторон : 2,35:1
Частота кадров : 24,000 кадра/сек
Цветовое пространство : YUV
Субдискретизация насыщенности : 4:2:0
Битовая глубина : 8 бит
Тип развёртки : Прогрессивная
Метод сжатия : С потерями
Бит/(Пиксели*Кадры) : 0.328
Размер потока : 1,08 Гбайт (79%)
Библиотека кодирования : XviD 1.2.1 (UTC 2008-12-04)
Аудио
Идентификатор : 1
Формат : AC-3
Формат/Информация : Audio Coding 3
Расширение режима : CM (complete main)
Параметр Endianness формата : Big
Идентификатор кодека : 2000
Продолжительность : 1 ч. 29 м.
Вид битрейта : Постоянный
Битрейт : 448 Кбит/сек
Каналы : 6 каналов
Расположение каналов : Front: L C R, Side: L R, LFE
Частота : 48,0 КГц
Битовая глубина : 16 бит
Метод сжатия : С потерями
Размер потока : 288 Мбайт (21%)
Выравнивание : Разделение по промежуткам
Продолжительность промежутка : 42 мс. (1,00 видеокадр)
Время предзагрузки промежутка : 500 мс.
Скриншоты:

Время раздачи: с 10.00 до 23.00

[Цитировать]

Топик был перенесен из форума Новинки кинопроката в форум Боевик
Henkok



Показать сообщения:    

Текущее время: 06-Дек 03:48

Часовой пояс: UTC + 3


Вы не можете начинать темы
Вы не можете отвечать на сообщения
Вы не можете редактировать свои сообщения
Вы не можете удалять свои сообщения
Вы не можете голосовать в опросах
Вы не можете прикреплять файлы к сообщениям
Вы не можете скачивать файлы

!ВНИМАНИЕ!
Сайт не предоставляет электронные версии произведений, а занимается лишь коллекционированием и каталогизацией ссылок, присылаемых и публикуемых на форуме нашими читателями. Если вы являетесь правообладателем какого-либо представленного материала и не желаете, чтобы ссылка на него находилась в нашем каталоге, свяжитесь с нами, и мы незамедлительно удалим ее. Файлы для обмена на трекере предоставлены пользователями сайта, и администрация не несет ответственности за их содержание. Просьба не заливать файлы, защищенные авторскими правами, а также файлы нелегального содержания!