[ Сегодня идет свободное скачивание без начисления Download ]


Статистика раздачи
Нет
 
   
 
Top  
 
 
-Опасный квартал / The Son of No One (2011) BDRip-«Служить. Защищать. Лгать».- Русское название: Опасный квартал
Оригинальное название: The Son of No One
Год выпуска: 2011
Жанр: Триллер, Драма, Криминал
Описание фильма:
Главный герой — молодой полицейский, приписанный к участку в районе, где в основном проживает рабочий класс. Герой вырос в этом районе, и теперь, когда он вернулся сюда стражем закона, на поверхности оказался некий секрет, который может уничтожить как семью копа, так и его самого.
Режиссер: Дито Монтиель
Актеры: Ченнинг Татум, Трэйси Морган, Кэти Холмс, Рэй Лиотта, Жюльет Бинош, Аль Пачино, Джеймс Рэнсон, Урсула Паркер, Брайан Гилберт, Джэйк Черри
Продолжительность: 01:33:45
Перевод: Дубляж + Профессиональный (многоголосый закадровый) - Украинский
Язык субтитров: Русские, Английские (srt)
Вид субтитров: Отдельным файлом

Дата мировой премьеры: 30 января 2011
Дата российской премьеры: 20 октября 2011
Дата выхода DVD релиза: 17 ноября 2011
Видеокодек: Xvid
Битрейт видео: ~1972
Размер кадра: 720х304
Качество видео: BDRip
Аудио#1: 48 kHz, AC3 Dolby Digital 6 ch, 448.00 kbps / Дубляж
Аудио#2: 48 kHz, AC3 Dolby Digital 6 ch, 448.00 kbps / Профессиональный (многоголосый закадровый) - Украинский
Аудио#3: 48 kHz, AC3 Dolby Digital 6 ch, 448.00 kbps / Оригинал (Английский)
Сэмпл: Ссылка
&

MI

Общее
Полное имя : E:\Фильмы М\The.Son.of.No.One.2011.BDRip.Rus.Ukr.Eng\The Son of No One.2011.BDRip.avi
Формат : AVI
Формат/Информация : Audio Video Interleave
Профиль формата : OpenDML
Размер файла : 2,19 Гбайт
Продолжительность : 1 ч. 33 м.
Общий поток : 3339 Кбит/сек
Программа кодирования : VirtualDubModRus 1.5.10.2 (build 2542/release)
Библиотека кодирования : VirtualDubMod build 2542/release
Видео
Идентификатор : 0
Формат : MPEG-4 Visual
Профиль формата : Advanced Simple@L5
Параметр BVOP формата : 1
Параметр QPel формата : Нет
Параметр GMC формата : Без точки перехода
Параметр матрицы формата : Выборочная
Режим смешивания : Сжатый битовый поток
Идентификатор кодека : XVID
Идентификатор кодека/Подсказка : XviD
Продолжительность : 1 ч. 33 м.
Битрейт : 1972 Кбит/сек
Ширина : 720 пикселей
Высота : 304 пикселя
Соотношение сторон : 2,35:1
Частота кадров : 23,976 кадра/сек
Цветовое пространство : YUV
Субдискретизация насыщенности : 4:2:0
Битовая глубина : 8 бит
Тип развёртки : Прогрессивная
Метод сжатия : С потерями
Бит/(Пиксели*Кадры) : 0.376
Размер потока : 1,29 Гбайт (59%)
Библиотека кодирования : XviD 65
Аудио #1
Идентификатор : 1
Формат : AC-3
Формат/Информация : Audio Coding 3
Расширение режима : CM (complete main)
Параметр Endianness формата : Big
Идентификатор кодека : 2000
Продолжительность : 1 ч. 33 м.
Вид битрейта : Постоянный
Битрейт : 448 Кбит/сек
Каналы : 6 каналов
Расположение каналов : Front: L C R, Side: L R, LFE
Частота : 48,0 КГц
Битовая глубина : 16 бит
Метод сжатия : С потерями
Размер потока : 300 Мбайт (13%)
Выравнивание : Разделение по промежуткам
Продолжительность промежутка : 42 мс. (1,00 видеокадр)
Время предзагрузки промежутка : 500 мс.
Аудио #2
Идентификатор : 2
Формат : AC-3
Формат/Информация : Audio Coding 3
Расширение режима : CM (complete main)
Параметр Endianness формата : Big
Идентификатор кодека : 2000
Продолжительность : 1 ч. 33 м.
Вид битрейта : Постоянный
Битрейт : 448 Кбит/сек
Каналы : 6 каналов
Расположение каналов : Front: L C R, Side: L R, LFE
Частота : 48,0 КГц
Битовая глубина : 16 бит
Метод сжатия : С потерями
Задержка видео : 1 с. 729 мс.
Размер потока : 300 Мбайт (13%)
Выравнивание : Разделение по промежуткам
Продолжительность промежутка : 42 мс. (1,00 видеокадр)
Время предзагрузки промежутка : 500 мс.
Аудио #3
Идентификатор : 3
Формат : AC-3
Формат/Информация : Audio Coding 3
Расширение режима : CM (complete main)
Параметр Endianness формата : Big
Идентификатор кодека : 2000
Продолжительность : 1 ч. 33 м.
Вид битрейта : Постоянный
Битрейт : 448 Кбит/сек
Каналы : 6 каналов
Расположение каналов : Front: L C R, Side: L R, LFE
Частота : 48,0 КГц
Битовая глубина : 16 бит
Метод сжатия : С потерями
Размер потока : 300 Мбайт (13%)
Выравнивание : Разделение по промежуткам
Продолжительность промежутка : 42 мс. (1,00 видеокадр)
Время предзагрузки промежутка : 500 мс.
Скриншоты:

Время раздачи: С 10:00 до 22:30

[Цитировать]



Показать сообщения:    

Текущее время: 08-Дек 19:12

Часовой пояс: UTC + 3


Вы не можете начинать темы
Вы не можете отвечать на сообщения
Вы не можете редактировать свои сообщения
Вы не можете удалять свои сообщения
Вы не можете голосовать в опросах
Вы не можете прикреплять файлы к сообщениям
Вы не можете скачивать файлы

!ВНИМАНИЕ!
Сайт не предоставляет электронные версии произведений, а занимается лишь коллекционированием и каталогизацией ссылок, присылаемых и публикуемых на форуме нашими читателями. Если вы являетесь правообладателем какого-либо представленного материала и не желаете, чтобы ссылка на него находилась в нашем каталоге, свяжитесь с нами, и мы незамедлительно удалим ее. Файлы для обмена на трекере предоставлены пользователями сайта, и администрация не несет ответственности за их содержание. Просьба не заливать файлы, защищенные авторскими правами, а также файлы нелегального содержания!