[ Сегодня идет свободное скачивание без начисления Download ]


Статистика раздачи
Нет
 
   
 
Top  
 
 
Ивашка из дворца пионеров Год выпуска: 1981
Страна: СССР
Производство: Союзмультфильм
Жанр: мультфильм, короткометражка
Режиссер: Геннадий Сокольский
В ролях: Светлана Харлап, Гарри Бардин, Ефим Кациров
Перевод: Не требуется
Субтитры: Отсутствуют
Описание: Приключения мальчика в стране сказок.
Десять минут безудержного смеха! Баба-Яга, на именины себе, приказала принести гусям мальчишку по-упитанней да по-воспитаней! Вот одна беда, самым упитанным оказался пионер Ваня, который занимался в секции юных техников.



Качество: DVDRip
Продолжительность: 00:10:00
Формат: AVI
Видео кодек: DivX
Аудио кодек: MP3
Видео: 720x544, 25 fps, DivX 5.x ~1214 kbps avg, 0.124 bit/pixel
Аудио: 48 kHz, MPEG Layer 3, ~121,1 kbps avg

Media Info

General
Complete name                    : D:\Users\Ерулан\Desktop\торренты\ивашка\Ивашка из дворца пионеров.avi
Format                           : AVI
Format/Info                      : Audio Video Interleave
File size                        : 91.0 MiB
Duration                         : 9mn 25s
Overall bit rate                 : 1 349 Kbps
Writing application              : VirtualDubMod 1.5.4.1 (build 2178/release)
Writing library                  : VirtualDubMod build 2178/release
Video
ID                               : 0
Format                           : MPEG-4 Visual
Format settings, BVOP            : Yes
Format settings, QPel            : No
Format settings, GMC             : No warppoints
Format settings, Matrix          : Default (H.263)
Muxing mode                      : Packed bitstream
Codec ID                         : DX50
Codec ID/Hint                    : DivX 5
Duration                         : 9mn 25s
Bit rate                         : 1 215 Kbps
Width                            : 720 pixels
Height                           : 544 pixels
Display aspect ratio             : 4:3
Frame rate                       : 25.000 fps
Resolution                       : 24 bits
Colorimetry                      : 4:2:0
Scan type                        : Progressive
Bits/(Pixel*Frame)               : 0.124
Stream size                      : 82.0 MiB (90%)
Writing library                  : DivX 5.2.1 (WaffleDay) (UTC 2004-09-08)
Audio
ID                               : 1
Format                           : MPEG Audio
Format version                   : Version 1
Format profile                   : Layer 3
Codec ID                         : 55
Codec ID/Hint                    : MP3
Duration                         : 9mn 25s
Bit rate mode                    : Variable
Bit rate                         : 121 Kbps
Nominal bit rate                 : 128 Kbps
Channel(s)                       : 2 channels
Sampling rate                    : 48.0 KHz
Resolution                       : 16 bits
Stream size                      : 8.17 MiB (9%)
Alignment                        : Aligned on interleaves
Interleave, duration             : 24 ms (0.60 video frame)
Interleave, preload duration     : 523 ms
Writing library                  : LAME3.96r
Encoding settings                : -m j -V 4 -q 2 -lowpass 17.5 --abr 128
Language                         : Russian

Скриншоты



[Цитировать]



Показать сообщения:    

Текущее время: 05-Дек 21:40

Часовой пояс: UTC + 3


Вы не можете начинать темы
Вы не можете отвечать на сообщения
Вы не можете редактировать свои сообщения
Вы не можете удалять свои сообщения
Вы не можете голосовать в опросах
Вы не можете прикреплять файлы к сообщениям
Вы не можете скачивать файлы

!ВНИМАНИЕ!
Сайт не предоставляет электронные версии произведений, а занимается лишь коллекционированием и каталогизацией ссылок, присылаемых и публикуемых на форуме нашими читателями. Если вы являетесь правообладателем какого-либо представленного материала и не желаете, чтобы ссылка на него находилась в нашем каталоге, свяжитесь с нами, и мы незамедлительно удалим ее. Файлы для обмена на трекере предоставлены пользователями сайта, и администрация не несет ответственности за их содержание. Просьба не заливать файлы, защищенные авторскими правами, а также файлы нелегального содержания!