[ Сегодня идет свободное скачивание без начисления Download ]


Статистика раздачи
Нет
 
   
 
Top  
 
 
-Пир Бабетты / Babettes g?stebud (1987) BDRip- Русское название: Пир Бабетты
Оригинальное название: Babettes g?stebud
Выпущено: Дания, Det Danske Filminstitut, Nordisk Film A/S, Panorama Film A/S, Rungstedlundfonden
Год выпуска: 1987
Жанр: Драма, Мелодрама, Музыка
Описание фильма:
В семью только что скончавшегося Лоренца Лёвенхьельма, который воспитал в истово протестантском духе двух своих дочерей — Мартину и Филиппу, названных так в честь Мартина Лютера и его соратника Филиппа Меланштона, приезжает из Франции в качестве домоправительницы женщина по имени Бабетта. На самом-то деле, она была вынуждена бросить всё и сбежать из Парижа, охваченного революцией 1871 года, захватив с собой только лотерейный билет, который ежегодно проверял её друг, пока не сообщил через 14 лет, что Бабетта выиграла солидную сумму — 10 тысяч франков. Решив вернуться на родину, Бабетта захотела устроить на прощание настоящий пир во французском духе, чтобы показать, насколько уныло и безрадостно существование протестантской общины.
Режиссер: Габриэль Аксель
Актеры: Стефани Одран, Биргитте Федерспиль, Бодиль Кшер, Ярл Кулле, Жан-Филипп Лафон, Аста Эспер Хаген Андерсен, Биби Андерссон, Томас Антони, Герт Бастиан, Вигго Бенцон, Вибеке Хаструп, Пуэль Керн, Ларс Ломанн, Лизабет Мовин, Хольгер Перфорт, Бендт Роте, Пребен Лердорф Рай, Аксель Стребюэ, Эбба Вит
Продолжительность: 01:43:09
Перевод: Многоголосый закадровый
Релиз группа:

Трейлер
Дата мировой премьеры: 28 августа 1987
Видеокодек: Xvid
Битрейт видео: ~1809 Кбит/сек
Размер кадра: 720x400
Качество видео: BDRip
Аудиокодек: AC3, 2 ch
Битрейт аудио: 192 Кбит/с

MediaInfo:

Общее
Полное имя : Pir.Babetty.1987.P.XviD.BDRip.avi
Формат : AVI
Формат/Информация : Audio Video Interleave
Размер файла : 1,45 Гбайт
Продолжительность : 1 ч. 43 м.
Общий поток : 2010 Кбит/сек
Программа кодирования : VirtualDubMod 1.5.10.2 (build 2540/release)
Библиотека кодирования : VirtualDubMod build 2540/release
Видео
Идентификатор : 0
Формат : MPEG-4 Visual
Профиль формата : Advanced Simple@L5
Параметр BVOP формата : 1
Параметр QPel формата : Нет
Параметр GMC формата : Без точки перехода
Параметр матрицы формата : Выборочная
Идентификатор кодека : XVID
Идентификатор кодека/Подсказка : XviD
Продолжительность : 1 ч. 43 м.
Битрейт : 1809 Кбит/сек
Ширина : 720 пикселей
Высота : 400 пикселей
Соотношение сторон : 16:9
Частота кадров : 24,000 кадра/сек
Цветовое пространство : YUV
Субдискретизация насыщенности : 4:2:0
Битовая глубина : 8 бит
Тип развёртки : Прогрессивная
Метод сжатия : С потерями
Бит/(Пиксели*Кадры) : 0.262
Размер потока : 1,30 Гбайт (90%)
Библиотека кодирования : XviD 1.2.1 (UTC 2008-12-04)
Аудио
Идентификатор : 1
Формат : AC-3
Формат/Информация : Audio Coding 3
Профиль формата : Dolby Digital
Расширение режима : CM (complete main)
Параметр Endianness формата : Big
Идентификатор кодека : 2000
Продолжительность : 1 ч. 43 м.
Вид битрейта : Постоянный
Битрейт : 192 Кбит/сек
Каналы : 2 канала
Расположение каналов : Front: L R
Частота : 48,0 КГц
Битовая глубина : 16 бит
Метод сжатия : С потерями
Размер потока : 142 Мбайт (10%)
Выравнивание : Разделение по промежуткам
Продолжительность промежутка : 42 мс. (1,00 видеокадр)
Время предзагрузки промежутка : 500 мс.
Скриншоты:

Награды

Приз «Серебряная лента» в Италии лучшей иностранной актрисе (Стефан Одран - поровну с Шер / Cher, сыгравшей в ленте «Очарованные луной» / Moonstruck), премия «Роберт» в Дании лучшей актрисе.
Золотой глобус, 1989 год
Номинации: Лучший фильм на иностранном языке — «Дания»
Британская академия, 1989 год
Победитель: Лучший фильм на иностранном языке
Номинации: Лучший фильм, Лучшая женская роль (Стефан Одран), Лучший режиссер (Габриэль Аксель), Лучший адаптированный сценарий, Лучшая работа оператора
Оскар, 1988 год
Победитель: Лучший фильм на иностранном языке — «Дания»
Каннский кинофестиваль, 1987 год
Победитель: Приз экуменического (христианского) жюри - особое упоминание
Время раздачи
с 8:00 до 02:00

[Цитировать]



Показать сообщения:    

Текущее время: 19-Фев 19:42

Часовой пояс: UTC + 3


Вы не можете начинать темы
Вы не можете отвечать на сообщения
Вы не можете редактировать свои сообщения
Вы не можете удалять свои сообщения
Вы не можете голосовать в опросах
Вы не можете прикреплять файлы к сообщениям
Вы не можете скачивать файлы

!ВНИМАНИЕ!
Сайт не предоставляет электронные версии произведений, а занимается лишь коллекционированием и каталогизацией ссылок, присылаемых и публикуемых на форуме нашими читателями. Если вы являетесь правообладателем какого-либо представленного материала и не желаете, чтобы ссылка на него находилась в нашем каталоге, свяжитесь с нами, и мы незамедлительно удалим ее. Файлы для обмена на трекере предоставлены пользователями сайта, и администрация не несет ответственности за их содержание. Просьба не заливать файлы, защищенные авторскими правами, а также файлы нелегального содержания!