[ Сегодня идет свободное скачивание без начисления Download ]


Статистика раздачи
Нет
 
   
 
Top  
 
 
-Нужные вещи / Needful Things (1993) HDRip- Русское название: Нужные вещи
Оригинальное название: Needful Things
Год выпуска: 1993
Жанр: Ужасы, Триллер, Драма
Производство: США, Castle Rock Entertainment, New Line Cinema
Описание фильма:
Экранизация романа Стивена Кинга с великолепными спецэффектами. В тихом городке Касл Рок открывается необычайный магазин «Нужные вещи», где можно за полцены купить все, что душе угодно. За вторую половину цены хозяин требует, чтобы покупатель устроил какую-нибудь пакость ближнему своему. В результате городок превращается в преисподнюю. Убийства, драки, взрывы, сведения счетов — сам дьявол манипулирует здешними обывателями. Если бы не шериф — единственный человек в Касл Рок, который ничего не захотел купить в этом проклятом магазине, все население городка переселилось бы прямо в ад. Но шериф оказывается человеком, которому от дьявола ничего не нужно.
Режиссер: Фрэйзер С. Хестон
Актеры: Эд Харрис, Макс фон Сюдов, Бонни Беделиа, Дж. Т. Уолш, Аманда Пламмер, Рэй МакКиннон, Дункан Фрайзер, Вэлри Бромфилд, Шейн Майер, Уильям Морган Шеппард
Продолжительность: 02:00:56
Перевод: Двуголосый закадровый, Авторский одноголосый А.Гаврилов

Дата мировой премьеры: 27 августа 1993
Автор:
Видеокодек: Xvid
Битрейт видео: ~1290 Кбит/сек
Размер кадра: 704 х 400
Качество видео: HDRip
Аудио 1: AC3 2.0, 224 Кбит/сек - Двухголосый закадровый
Аудио 2: AC3 2.0, 192 Кбит/сек - Авторский одноголосый А.Гаврилов

MediaInfo

Формат : AVI
Формат/Информация : Audio Video Interleave
Размер файла : 1,45 Гбайт
Продолжительность : 2 ч. 0 м.
Общий поток : 1719 Кбит/сек
Программа кодирования : VirtualDubMod 1.5.10.2 (build 2542/release)
Библиотека кодирования : VirtualDubMod build 2542/release
Видео
Идентификатор : 0
Формат : MPEG-4 Visual
Профиль формата : Advanced [email protected]
Параметр BVOP формата : 2
Параметр QPel формата : Нет
Параметр GMC формата : Без точки перехода
Параметр матрицы формата : Default (H.263)
Идентификатор кодека : XVID
Идентификатор кодека/Подсказка : XviD
Продолжительность : 2 ч. 0 м.
Битрейт : 1290 Кбит/сек
Ширина : 704 пикселя
Высота : 400 пикселей
Соотношение сторон : 16:9
Частота кадров : 23,976 кадра/сек
Цветовое пространство : YUV
Субдискретизация насыщенности : 4:2:0
Битовая глубина : 8 бит
Тип развёртки : Прогрессивная
Метод сжатия : С потерями
Бит/(Пиксели*Кадры) : 0.191
Размер потока : 1,09 Гбайт (75%)
Библиотека кодирования : XviD 1.2.1 (UTC 2008-12-04)
Аудио #1
Идентификатор : 1
Формат : AC-3
Формат/Информация : Audio Coding 3
Расширение режима : CM (complete main)
Идентификатор кодека : 2000
Продолжительность : 2 ч. 0 м.
Вид битрейта : Постоянный
Битрейт : 224 Кбит/сек
Каналы : 2 канала
Расположение каналов : Front: L R
Частота : 48,0 КГц
Битовая глубина : 16 бит
Метод сжатия : С потерями
Размер потока : 193 Мбайт (13%)
Выравнивание : Разделение по промежуткам
Продолжительность промежутка : 42 мс. (1,00 видеокадр)
Время предзагрузки промежутка : 500 мс.
Аудио #2
Идентификатор : 2
Формат : AC-3
Формат/Информация : Audio Coding 3
Расширение режима : CM (complete main)
Идентификатор кодека : 2000
Продолжительность : 2 ч. 0 м.
Вид битрейта : Постоянный
Битрейт : 192 Кбит/сек
Каналы : 2 канала
Расположение каналов : Front: L R
Частота : 48,0 КГц
Битовая глубина : 16 бит
Метод сжатия : С потерями
Размер потока : 166 Мбайт (11%)
Выравнивание : Разделение по промежуткам
Продолжительность промежутка : 42 мс. (1,00 видеокадр)
Время предзагрузки промежутка : 500 мс.

Факты:

- Звезда хоррор-фильмов Лиса Блаунт «засветилась» в роли Коры Раск (без указания в титрах).
- Существует телевизионная 3-часовая версия фильма, впервые вышедшая в эфир 22 мая 1996 года. В этой версии фигурирует больше жителей Касл-Рока, а истории их жизней показаны более подробно.
- Кинокомпания «Касл-Рок Энтертэйнмент» названа в честь Касл-Рока, штат Мэн, - вымышленного городка, где живут герои многих книг Стивена Кинга, в том числе и романа «Необходимые вещи (Самое необходимое)».
Скриншоты:

Время раздачи: с 12:00 до 18:00

[Цитировать]



Показать сообщения:    

Текущее время: 05-Дек 19:37

Часовой пояс: UTC + 3


Вы не можете начинать темы
Вы не можете отвечать на сообщения
Вы не можете редактировать свои сообщения
Вы не можете удалять свои сообщения
Вы не можете голосовать в опросах
Вы не можете прикреплять файлы к сообщениям
Вы не можете скачивать файлы

!ВНИМАНИЕ!
Сайт не предоставляет электронные версии произведений, а занимается лишь коллекционированием и каталогизацией ссылок, присылаемых и публикуемых на форуме нашими читателями. Если вы являетесь правообладателем какого-либо представленного материала и не желаете, чтобы ссылка на него находилась в нашем каталоге, свяжитесь с нами, и мы незамедлительно удалим ее. Файлы для обмена на трекере предоставлены пользователями сайта, и администрация не несет ответственности за их содержание. Просьба не заливать файлы, защищенные авторскими правами, а также файлы нелегального содержания!