[ Сегодня идет свободное скачивание без начисления Download ]


Статистика раздачи
Нет
 
   
 
Top  
 
 
-С возвращением / Bienvenue parmi nous (2012) HDRip- Русское название: С возвращением
Оригинальное название: Bienvenue parmi nous
Год выпуска: 2012
Жанр: Драма
Производство: Франция
Описание фильма:
Несмотря на всю свою славу 60-летний художник Таилландье бросает рисовать. В депрессии он решает покинуть свой дом, безо всякой цели и ничего не говоря родным. Во время его странствий происходит странная встреча с предоставленной самой себе девушкой-подростком Мэрилу, от которой отказалась её мать. Сведённым судьбой потерявшейся девушке и мужчине в конце своего жизненного пути предстоит долгая совместная дорога вместе с тем, чтобы найти душевный покой и обрести новый смысл в своей жизни.
Режиссер: Жан Бекер
Актеры: Патрик Шенэ, Джиэн Ламберт, Миу-Миу, Жак Вебер, Ксавье Галле, Рафаэлин Гупийо, Дидье Бенюро, Жюльен Барбье, Юрбен Канселье...
Продолжительность: 01:31:50
Перевод: Дублированный [чистый звук]

Дата мировой премьеры: 13 июня 2012
Качество видео: HDRip
Видеокодек: XviD
Битрейт видео: ~ 1902 Кбит/сек
Размер кадра: 720x304
Аудио:
Аудио 1: AC3, 192 kb/s (2 ch) Русский
Аудио 2: AC3, 192kb/s (2 ch) Французский

MediaInfo:

Общее
Полное имя : I:\Kino\С возвращением\S.vozvrasheniem.2012.nnm.HDRip.avi
Формат : AVI
Формат/Информация : Audio Video Interleave
Размер файла : 1,48 Гбайт
Продолжительность : 1 ч. 31 м.
Общий поток : 2300 Кбит/сек
Программа кодирования : VirtualDubMod 1.5.10.2 (build 2540/release)
Библиотека кодирования : VirtualDubMod build 2540/release
Видео
Идентификатор : 0
Формат : MPEG-4 Visual
Профиль формата : Advanced [email protected]
Параметр BVOP формата : 2
Параметр QPel формата : Нет
Параметр GMC формата : Без точки перехода
Параметр матрицы формата : Выборочная
Идентификатор кодека : XVID
Идентификатор кодека/Подсказка : XviD
Продолжительность : 1 ч. 31 м.
Битрейт : 1902 Кбит/сек
Ширина : 720 пикселей
Высота : 304 пикселя
Соотношение сторон : 2,35:1
Частота кадров : 24,000 кадра/сек
Цветовое пространство : YUV
Субдискретизация насыщенности : 4:2:0
Битовая глубина : 8 бит
Тип развёртки : Прогрессивная
Метод сжатия : С потерями
Бит/(Пиксели*Кадры) : 0.362
Размер потока : 1,22 Гбайт (83%)
Библиотека кодирования : XviD 1.2.1 (UTC 2008-12-04)
Аудио #1
Идентификатор : 1
Формат : AC-3
Формат/Информация : Audio Coding 3
Расширение режима : CM (complete main)
Идентификатор кодека : 2000
Продолжительность : 1 ч. 31 м.
Вид битрейта : Постоянный
Битрейт : 192 Кбит/сек
Каналы : 2 канала
Расположение каналов : Front: L R
Частота : 48,0 КГц
Битовая глубина : 16 бит
Метод сжатия : С потерями
Размер потока : 126 Мбайт (8%)
Выравнивание : Разделение по промежуткам
Продолжительность промежутка : 42 мс. (1,00 видеокадр)
Время предзагрузки промежутка : 500 мс.
Аудио #2
Идентификатор : 2
Формат : AC-3
Формат/Информация : Audio Coding 3
Расширение режима : CM (complete main)
Идентификатор кодека : 2000
Продолжительность : 1 ч. 31 м.
Вид битрейта : Постоянный
Битрейт : 192 Кбит/сек
Каналы : 2 канала
Расположение каналов : Front: L R
Частота : 48,0 КГц
Битовая глубина : 16 бит
Метод сжатия : С потерями
Размер потока : 126 Мбайт (8%)
Выравнивание : Разделение по промежуткам
Продолжительность промежутка : 42 мс. (1,00 видеокадр)
Время предзагрузки промежутка : 500 мс.
Скриншоты:
Время раздачи: С 09:00 до 24:00 мск

[Цитировать]



Показать сообщения:    

Текущее время: 05-Дек 05:31

Часовой пояс: UTC + 3


Вы не можете начинать темы
Вы не можете отвечать на сообщения
Вы не можете редактировать свои сообщения
Вы не можете удалять свои сообщения
Вы не можете голосовать в опросах
Вы не можете прикреплять файлы к сообщениям
Вы не можете скачивать файлы

!ВНИМАНИЕ!
Сайт не предоставляет электронные версии произведений, а занимается лишь коллекционированием и каталогизацией ссылок, присылаемых и публикуемых на форуме нашими читателями. Если вы являетесь правообладателем какого-либо представленного материала и не желаете, чтобы ссылка на него находилась в нашем каталоге, свяжитесь с нами, и мы незамедлительно удалим ее. Файлы для обмена на трекере предоставлены пользователями сайта, и администрация не несет ответственности за их содержание. Просьба не заливать файлы, защищенные авторскими правами, а также файлы нелегального содержания!